<?xml version="1.0" standalone="no"?>
<!DOCTYPE svg PUBLIC "-//W3C//DTD SVG 1.1//EN" "http://www.w3.org/Graphics/SVG/1.1/DTD/svg11.dtd" >
<svg xmlns="http://www.w3.org/2000/svg" xmlns:xlink="http://www.w3.org/1999/xlink" version="1.1">
<metadata>
Created by FontForge 20170731 at Wed Sep  2 14:27:33 2020
 By Aleksey,,,
Naharstd (c) 2020
</metadata>
<defs>
<font id="BrightonsRegular" horiz-adv-x="457" >
  <font-face 
    font-family="Brightons"
    font-weight="400"
    font-stretch="normal"
    units-per-em="1000"
    panose-1="0 0 0 0 0 0 0 0 0 0"
    ascent="800"
    descent="-200"
    x-height="464"
    cap-height="823"
    bbox="-260.333 -392.6 1806 1072"
    underline-thickness="50"
    underline-position="-200"
    unicode-range="U+000A-F044"
  />
<missing-glyph horiz-adv-x="527" 
d="M50 700h427v-700h-427v700zM78 680l185 -309l186 309h-371zM251 350l-180 300v-601zM264 329l-185 -308h370zM276 350l181 -303v605z" />
    <glyph glyph-name="it.liga" unicode="it" horiz-adv-x="379" 
d="M593 514h-201q-174 -514 -160 -586q-68 -9 -87 24.5t2 113.5q6 22 23 80l-113 -145q-21 -5 -49 -1q-59 8 -43 100q11 65 91 278q15 41 23 63q4 11 13.5 17.5t20.5 6.5h80q-14 -37 -42 -109.5t-43.5 -115.5t-26.5 -76l-1 -4q-14 -44 -18 -70v-3q-3 -14 -5 -31
q94 112 139 175q36 116 89 283h-177q5 14 16 43l3 7q16 41 22 55q9 25 34 25l55 -2h1l63 -1q-24 -5 -56 -60q-5 -8 -9 -17h64q24 72 44 133q2 8 7 13.5t12 8.5t15 3h119q-4 -1 -10.5 -4.5t-22.5 -23.5t-27 -49q-15 -42 -29 -81h200z" />
    <glyph glyph-name="oi.liga" unicode="oi" horiz-adv-x="551" 
d="M594 642l63 -1h-1q-24 -5 -56 -60q-4 -8 -9 -17q-12 -22 -24 -50h-105q9 24 23.5 61t17.5 44q10 25 35 25l54 -2h2zM412 56q95 114 140 177h41l-181 -232q-22 -5 -50 -1q-59 8 -43 100q11 64 83 256q-41 -42 -86 -66q-10 -48 -34 -103q-25 -60 -57 -101.5t-63.5 -60
t-59 -24.5t-50.5 -2v-1q-6 2 -13 5q-12 4 -19 11h-1q-88 64 -20 256q8 21 30 61q3 4 4 7q4 6 5 7q11 17 26 29t33 18q6 1 13 3q14 36 52 55t74 14q14 -3 27.5 -9t29 -19.5t24 -40.5t5.5 -63q72 42 115 116l1 1.5t1.5 2l0.5 0.5q11 13 27 13h80q-14 -37 -41.5 -109.5
t-43.5 -115.5t-26 -76l-2 -4q-14 -45 -17 -70q0 -1 -1 -3q-2 -14 -4 -31zM220 409q-15 16 -37 10t-36 -27q17 -5 28 -18q-15 -16 -31 -39q25 -35 73 -36q11 41 11 71.5t-8 38.5zM185 210q12 28 21 54q-46 5 -82 38q-14 -25 -27 -55q-29 -63 -39.5 -119t0.5 -78q30 8 63 49.5
t64 110.5z" />
    <glyph glyph-name="om.liga" unicode="om" horiz-adv-x="999" 
d="M1001 233h43l-182 -232q-20 -5 -51 -1q-63 9 -33 134q17 73 95 281q-60 -88 -207 -334q-10 -16 -29 -16h-39q-16 0 -26 13t-6 28q52 193 86 283q-66 -83 -149.5 -232t-98.5 -229v0q-69 -9 -88 24.5t2 113.5q15 58 90 297q-42 -47 -92 -73q-10 -48 -34 -103
q-25 -60 -57 -101.5t-63.5 -60t-59 -24.5t-50.5 -2v-1q-6 2 -13 5q-12 4 -19 11h-1q-88 64 -20 256q8 22 30 61q3 4 4 7q4 6 5 7q11 18 26 29q15 13 33 18q6 2 13 3q14 36 52 55.5t74 13.5q14 -2 27.5 -8.5t29 -20t24 -40.5t5.5 -63q70 41 114 113q2 5 4 7v0q11 14 28 14
h114q-3 -1 -9.5 -4.5t-22.5 -22.5t-27 -47q-51 -156 -81 -264q58 116 136.5 226.5t101.5 110.5h60q17 0 26 -13t3 -29q-28 -72 -65 -197q72 116 130.5 199t73.5 83h60q16 0 25 -13.5t3 -29.5q-97 -257 -113 -310q-12 -39 -16 -65v-3q-3 -14 -5 -31q95 114 139 177zM220 409
q-15 16 -37 10t-36 -27q17 -5 28 -18q-15 -16 -31 -39q25 -35 73 -36q11 41 11 71.5t-8 38.5zM185 210q12 28 21 54q-46 5 -82 38q-14 -25 -27 -55q-29 -63 -39.5 -119t0.5 -78q30 8 63 49.5t64 110.5z" />
    <glyph glyph-name="on.liga" unicode="on" horiz-adv-x="811" 
d="M812 233h43l-182 -232q-21 -5 -49 -1q-59 8 -43 100q11 65 90 277q4 11 7 17q-71 -81 -165 -233.5t-109 -232.5v0q-68 -9 -87 24.5t2 113.5q14 59 90 297q-43 -47 -93 -73q-10 -48 -34 -103q-25 -60 -57 -101.5t-63.5 -60t-59 -24.5t-50.5 -2v-1q-6 2 -13 5q-12 4 -19 11
h-1q-88 64 -20 256q8 21 30 61q3 4 4 7q4 6 5 7q11 17 26 29t33 18q6 1 13 3q14 36 52 55t74 14q14 -3 27.5 -9t29 -19.5t24 -40.5t5.5 -63q72 42 115 116l2 3l1 1v0q11 14 28 14h115q-4 -1 -10.5 -5t-22 -22.5t-27.5 -46.5q-55 -167 -85 -278q40 77 98.5 161t105.5 137
t62 53h60q17 0 25.5 -13t3.5 -29q-75 -197 -91 -244q-3 -8 -6 -18q-3 -11 -5 -17q0 -1 -1 -5q-8 -25 -11 -47q-3 -17 -6 -35q95 113 139 176zM220 409q-15 16 -37 10t-36 -27q17 -5 28 -18q-15 -16 -31 -39q25 -35 73 -36q11 41 11 71.5t-8 38.5zM185 210q12 28 21 54
q-46 5 -82 38q-14 -25 -27 -55q-29 -63 -39.5 -119t0.5 -78q30 8 63 49.5t64 110.5z" />
    <glyph glyph-name="oo.liga" unicode="oo" horiz-adv-x="740" 
d="M672 241q38 -6 80 -2l-9 -30q-41 -4 -82 2q-8 -21 -10 -24q-25 -60 -57 -101.5t-63.5 -60t-58.5 -24.5t-51 -2v-1q-6 2 -13 5q-12 4 -19 11h-1q-88 64 -19 256q1 5 5 13q-32 -12 -64 -19q-10 -36 -28 -77q-25 -60 -57 -101.5t-63.5 -60t-59 -24.5t-50.5 -2v-1q-6 2 -13 5
q-12 4 -19 11h-1q-88 64 -20 256q8 21 30 61q3 4 4 7q4 6 5 7q11 17 26 29t33 18q6 1 13 3q14 36 52 55t74 14q10 -2 19 -5t21.5 -10.5t21 -19t17 -29t8 -42t-4.5 -57.5q41 9 79 27q1 2 2 3q2 4 4 7q3 6 4 7q11 17 27 29q15 12 32 18q6 1 13 3q14 36 52 55t75 14
q13 -3 26 -8t29 -20.5t24 -38t6 -63.5t-19 -93zM220 409q-15 16 -37 10t-36 -27q17 -5 28 -18q-16 -16 -32 -41q22 -31 73 -38q11 43 11.5 74.5t-7.5 39.5zM185 210q11 26 20 52q-49 9 -81 40q-14 -25 -27 -55q-29 -63 -39.5 -119t0.5 -78q30 8 63 49.5t64 110.5zM589 409
q-15 16 -37 10t-35 -27q17 -5 28 -18q-15 -15 -30 -37q21 -36 64 -63q16 50 18 88.5t-8 46.5zM554 210q7 15 13 32q-44 23 -74 59q-14 -26 -27 -54q-28 -63 -38.5 -119t0.5 -78q29 8 62 49.5t64 110.5z" />
    <glyph glyph-name="op.liga" unicode="op" horiz-adv-x="821" 
d="M835 239l-10 -35l-103 -44q-27 -57 -59.5 -94.5t-60 -52.5t-54.5 -18.5t-45.5 2.5t-30.5 17q-4 3 -5 5q-17 17 -17.5 39.5t19.5 33.5v0l136 54q17 30 32 64q22 49 33 93t10.5 70t-8.5 36q-36 42 -138 -138q-26 -46 -56 -107l-37 -74q-13 -27 -32 -69q-26 -88 -36 -131
q-27 -106 -21 -135q-69 -10 -88 24t3 114q20 80 142 470q-43 -47 -93 -73q-10 -48 -34 -103q-25 -60 -57 -101.5t-63.5 -60t-58.5 -24.5t-51 -2v-1q-6 2 -13 5q-12 4 -19 11h-1q-88 64 -20 256q8 21 30 61q3 4 4 7q4 6 5 7q11 17 26 29t33 18q6 1 13 3q14 36 52 55t74 14
q14 -3 27.5 -9t29 -19.5t24 -40.5t5.5 -63q70 41 114 113q2 5 4 7v0q11 14 28 14h114q-3 -1 -9.5 -4.5t-22 -22t-26.5 -45.5q-27 -83 -58 -184q70 138 120 194.5t103 59.5q14 0 29.5 -3.5t33 -19.5t25 -42.5t-0.5 -78t-36 -119.5zM220 409q-15 16 -37 10t-36 -27
q17 -5 28 -18q-15 -16 -31 -39q25 -35 73 -36q11 41 11 71.5t-8 38.5zM185 210q12 28 21 54q-46 5 -82 38q-14 -26 -27 -55q-29 -63 -39.5 -119t0.5 -78q30 8 63 49.5t64 110.5zM493 49q35 -5 77 46l-87 -37q3 -8 10 -9z" />
    <glyph glyph-name="or.liga" unicode="or" horiz-adv-x="763" 
d="M736 465q8 0 17.5 -3.5t16.5 -10t7 -15.5t-9 -21q-39 -45 -71 -123t-24 -121q-30 -5 -49 5t-24 29t-4 40t8 40q7 22 23 58t19 44q-39 -51 -90 -134.5t-96.5 -177t-55.5 -147.5q-69 -9 -87.5 24.5t2.5 113.5q14 59 90 297q-43 -47 -93 -73q-10 -48 -34 -103
q-25 -60 -57 -101.5t-63.5 -60t-59 -24.5t-50.5 -2v-1q-6 2 -13 5q-12 4 -19 11h-1q-88 64 -20 256q8 21 30 61q3 4 4 7q4 6 5 7q11 17 26 29t33 18q6 1 13 3q14 36 52 55t74 14q14 -3 27.5 -9t29 -19.5t24 -40.5t5.5 -63q71 42 115 115q2 4 3 5v0q11 14 28 14h115
q-1 0 -2.5 -0.5t-5.5 -3t-8 -6t-9.5 -9.5t-11 -13t-12 -18t-11.5 -24q-50 -154 -80 -261q57 116 133.5 225t98.5 109h61zM220 409q-15 16 -37 10t-36 -27q17 -5 28 -18q-15 -16 -31 -39q25 -35 73 -36q11 41 11 71.5t-8 38.5zM185 210q12 28 21 54q-46 5 -82 38
q-14 -25 -27 -55q-29 -63 -39.5 -119t0.5 -78q30 8 63 49.5t64 110.5z" />
    <glyph glyph-name="os.liga" unicode="os" horiz-adv-x="714" 
d="M668 499h109q-26 -16 -49 -43q-34 -37 -56.5 -82.5t-23.5 -61.5v-1l-1 0.5t-2 1.5q-24 10 -30 34v1q-8 27 6 67q-11 2 -21.5 3t-24.5 0t-27 -8t-25 -18t-21.5 -32t-14.5 -49q0 -12 -1.5 -19.5t2 -19t5 -18.5t7.5 -18.5t9.5 -18t11 -17.5t12 -17l12 -16t11.5 -16
q118 65 168 82l-8 -30v-2q-72 -33 -144 -74q10 -16 15.5 -28.5t10 -29t2.5 -34t-10 -35.5q-27 -66 -115 -79q-73 -12 -120 17q-47 28 -12 70q4 5 9 10q16 15 43.5 33.5t56.5 35.5t35 21l-17 17t-18.5 19t-16.5 18.5t-17 20t-13.5 19t-12.5 21.5t-7.5 20.5t-3.5 21.5
q-2 15 -2 26q1 10 3 24q-33 -26 -70 -40q-10 -42 -30 -88q-25 -60 -57 -101.5t-63.5 -60t-59 -24.5t-50.5 -2v-1q-6 2 -13 5q-12 4 -19 11h-1q-88 64 -20 256q8 21 30 61q3 4 4 7q4 6 5 7q11 17 26 29t33 18q6 1 13 3q14 36 52 55t74 14q15 -3 28.5 -9.5t30 -21t24 -44
t2.5 -70.5q44 20 78 54q16 33 42 55h1q40 34 95 39t98 -19q15 31 33 51zM220 409q-15 16 -37 10t-36 -27q17 -5 28 -18q-15 -16 -31 -39q24 -31 73 -36q11 41 11 71.5t-8 38.5zM185 210q12 26 21 53q-46 8 -81 40q-15 -26 -28 -56q-29 -63 -39.5 -119t0.5 -78q30 8 63 49.5
t64 110.5zM453 -21q86 41 53 106q-9 -6 -30.5 -19t-36 -22t-31 -20t-26 -20t-11.5 -15q-1 -15 25 -18t57 8z" />
    <glyph glyph-name="ot.liga" unicode="ot" horiz-adv-x="566" 
d="M780 514h-201q-174 -514 -160 -586q-68 -9 -87 24.5t2 113.5q16 63 102 336q-48 -55 -117 -91q-8 -55 -37 -124q-25 -60 -57 -101.5t-63.5 -60t-59 -24.5t-50.5 -2v-1q-6 2 -13 5q-12 4 -19 11h-1q-88 64 -20 256q8 21 30 61q3 4 4 7q4 6 5 7q11 17 26 29t33 18q6 1 13 3
q14 36 52 55t74 14q13 -2 25.5 -7.5t27.5 -17.5t24.5 -35.5t9.5 -56.5q49 30 89.5 73.5t59.5 91.5v1.5v0.5h-214l16 50h214q24 72 43 133q4 11 13.5 18t21.5 7h119q-4 -1 -10.5 -4.5t-22.5 -23.5t-28 -49q-14 -42 -28 -81h200zM220 409q-15 16 -37 10t-36 -27q17 -5 28 -18
q-15 -16 -31 -39q24 -31 75 -26q19 78 1 100zM185 210q15 33 25 66q-53 -3 -86 26q-14 -25 -27 -55q-29 -63 -39.5 -119t0.5 -78q30 8 63 49.5t64 110.5z" />
    <glyph glyph-name="ou.liga" unicode="ou" horiz-adv-x="792" 
d="M797 232h36q-36 -80 -66 -129.5t-58 -72.5t-51 -29t-53 -2q-33 5 -42.5 32.5t0.5 75.5q-26 -41 -51 -67t-43.5 -33.5t-36.5 -10t-31 3.5q-41 10 -53 55t2 117.5t52 183.5q-40 -42 -86 -66q-10 -48 -34 -103q-25 -60 -57 -101.5t-63.5 -60t-59 -24.5t-50.5 -2v-1
q-6 2 -13 5q-12 4 -19 11h-1q-88 64 -20 256q8 21 30 61q3 4 4 7q4 6 5 7q11 17 26 29t33 18q6 1 13 3q14 36 52 55t74 14q14 -3 27.5 -9t29 -19.5t24 -40.5t5.5 -63q67 39 110 107v2q4 11 13.5 17.5t20.5 6.5h80q-138 -369 -79 -390q31 -10 68 44t82 162q7 21 17 47
t22 58.5t20 53.5q4 11 13.5 17.5t20.5 6.5h46v1h65q-4 -1 -10 -5t-22 -22.5t-28 -47.5v0q-87 -231 -99 -285q-11 -51 6 -60q16 -9 52.5 45.5t76.5 141.5zM220 409q-15 16 -37 10t-36 -27q17 -5 28 -18q-15 -16 -31 -39q25 -35 73 -36q11 41 11 71.5t-8 38.5zM185 210
q12 28 21 54q-46 5 -82 38q-14 -25 -27 -55q-29 -63 -39.5 -119t0.5 -78q30 8 63 49.5t64 110.5z" />
    <glyph glyph-name="ss.liga" unicode="ss" horiz-adv-x="649" 
d="M595 499h108q-25 -16 -49 -43q-33 -37 -55.5 -82.5t-24.5 -61.5v-1l-1 0.5t-2 1.5q-23 10 -30 34v1q-7 27 6 67q-13 3 -26 4t-30.5 -3.5t-31.5 -15t-27 -33.5t-19 -56q-1 -8 -1 -17.5t1 -17.5t4 -17t6 -16.5t8 -16.5t9 -15.5t10.5 -15.5t10.5 -15t10.5 -15t10.5 -14
q118 65 168 82l-7 -29l-1 -3q-72 -33 -143 -74q9 -16 14.5 -28.5t10 -29t2.5 -34t-9 -35.5q-28 -66 -116 -79q-72 -12 -120 17q-46 28 -12 70q4 5 9 10q17 15 44.5 33.5t56 35.5t34.5 21q-4 4 -11.5 12t-12.5 13t-12 12.5t-12.5 13.5t-11.5 13t-11.5 14.5t-10.5 14.5
q-72 -33 -143 -74q10 -16 15.5 -28.5t10 -29t2.5 -34t-10 -35.5q-27 -66 -115 -79q-73 -12 -120 17q-47 28 -12 70q4 5 9 10q16 15 43.5 33.5t56.5 35.5t35 21q-3 3 -17 17.5t-18.5 19t-16.5 18t-17 20t-13.5 19t-12.5 21.5t-7.5 20.5t-3.5 21.5q-2 15 -2 26q4 59 31 101
t65.5 58.5t81 16.5t78.5 -19q15 31 33 51h109q-26 -16 -49 -43q-33 -37 -56 -82.5t-24 -61.5v-1l-1 0.5t-2 1.5q-24 10 -30 34v1q-8 27 6 67q-14 3 -26.5 4t-30 -3.5t-32 -15t-27 -33.5t-18.5 -56q0 -12 -1.5 -19.5t2 -19t5 -18.5t7.5 -18.5t9.5 -18t11 -17.5t12 -17l12 -16
t11.5 -16q94 52 146 73q-10 22 -11 41q-2 15 -1 26q3 59 30 101t65.5 58.5t81 16.5t78.5 -19q15 31 34 51zM69 -21q86 41 53 106q-9 -6 -30.5 -19t-36 -22t-31 -20t-26 -20t-11.5 -15q-1 -15 25 -18t57 8zM380 -21q85 41 53 106q-10 -6 -31 -19t-36 -22t-31.5 -20t-26 -20
t-11.5 -15q-1 -15 25.5 -18t57.5 8z" />
    <glyph glyph-name="tb.liga" unicode="tb" horiz-adv-x="656" 
d="M673 239l-10 -35l-104 -44q-27 -57 -59 -94.5t-60 -52.5t-55 -18.5t-45.5 2.5t-30.5 17l-5 5q-17 17 -17.5 39.5t19.5 33.5v0l136 55q17 29 32 63q22 49 33 93t10.5 70t-8.5 36q-36 42 -138 -138q-26 -46 -56 -106q-21 -43 -37 -75q-13 -28 -35 -77q-14 -64 -10 -85
q-68 -9 -87 24.5t2 113.5q20 78 138 448h-90q-174 -514 -160 -586q-68 -9 -87 24.5t2 113.5q20 78 138 448h-214l16 50h214q24 72 44 133q3 11 12.5 18t21.5 7h119q-1 0 -3.5 -1t-10 -7t-14.5 -13.5t-16 -22.5t-16 -33q-15 -42 -29 -81h89q24 72 44 133q3 11 12.5 18t21.5 7
h119q-4 -1 -10.5 -4.5t-22.5 -23.5t-28 -49q-98 -281 -154 -474q79 161 132.5 225.5t109.5 67.5q15 0 30 -3.5t32.5 -19.5t25 -42.5t0 -78t-36.5 -119.5zM330 49q35 -5 77 46l-87 -37q4 -8 10 -9z" />
    <glyph glyph-name="tf.liga" unicode="tf" horiz-adv-x="416" 
d="M498 722q-4 -1 -10.5 -4.5t-22.5 -23.5t-27 -49q-81 -228 -135 -407h125l-9 -29h-105q24 -38 26.5 -86t-12.5 -88t-41 -70t-55 -37q-68 -9 -87 24.5t2 113.5q20 78 138 448h-89q-71 -211 -119.5 -378.5t-40.5 -207.5q-68 -9 -87 24.5t2 113.5q20 78 138 448h-214l16 50
h214q24 72 44 133q3 11 12.5 18t21.5 7h119q-4 -1 -10.5 -4.5t-22.5 -23.5t-27 -49q-15 -42 -29 -81h88q24 72 44 133q2 8 7 13.5t12 8.5t15 3h119zM236 -16q-3 -26 9 -24q17 3 41 49q42 83 18 149q-7 16 -17 29q-35 -120 -48 -187q0 -1 -0.5 -1.5t-0.5 -1.5q0 -4 -2 -13z
" />
    <glyph glyph-name="th.liga" unicode="th" horiz-adv-x="646" 
d="M649 233h42l-182 -232q-21 -5 -49 -1q-59 8 -44 100q11 64 91 276l14 37q-42 -31 -104.5 -123.5t-113.5 -196t-63 -165.5q-68 -9 -87 24.5t2 113.5q19 78 138 448h-97q-71 -211 -119.5 -378.5t-40.5 -207.5q-68 -9 -87 24.5t2 113.5q20 78 138 448h-214l16 50h214
q24 72 44 133q3 11 12.5 18t21.5 7h119q-4 -1 -10.5 -4.5t-22.5 -23.5t-27 -49q-15 -42 -29 -81h96q23 72 43 133q3 8 8 13.5t12 8.5t14 3h120q-4 -1 -10.5 -4.5t-22.5 -23.5t-28 -49q-15 -42 -28 -81h149l-16 -50h-150q-78 -228 -120 -377q62 125 139.5 226.5t120.5 101.5
h60q17 0 26 -13t3 -29q-78 -207 -92 -249q-2 -4 -7 -19q-1 -5 -4 -16q-8 -25 -11 -47q-4 -17 -6 -37q96 115 140 178z" />
    <glyph glyph-name="ti.liga" unicode="ti" horiz-adv-x="381" 
d="M423 642l64 -1h-1q-24 -5 -56 -60q-5 -8 -9 -17q-12 -22 -24 -50h-201q-174 -514 -160 -586q-68 -9 -87 24.5t2 113.5q20 78 138 448h-214l16 50h214q24 72 44 133q3 11 12.5 18t21.5 7h119q-4 -1 -10.5 -4.5t-22.5 -23.5t-27 -49q-15 -42 -29 -81h98l22 55q10 25 35 25
l54 -2h1zM242 56q95 113 139 177h42l-182 -232q-21 -5 -49 -1q-59 8 -43 100q11 65 91 278q15 41 23 63q4 11 13.5 17.5t20.5 6.5h80q-14 -37 -41.5 -109.5t-43.5 -115.5t-26 -76l-2 -4q-14 -45 -17 -70q0 -1 -1 -3q-3 -14 -4 -31z" />
    <glyph glyph-name="tj.liga" unicode="tj" horiz-adv-x="390" 
d="M391 233h46q-117 -95 -186 -154q-22 -68 -38 -123q-31 -99 -75.5 -149.5t-114.5 -51.5q-59 0 -65.5 24.5t29.5 73.5q35 50 134 145q9 30 21 66q5 20 11 37q58 181 109 339q4 11 13.5 18t20.5 7h87q-8 -21 -28 -77v-1q-48 -135 -87 -256q86 74 123 102zM10 -205
q47 17 94 149q-75 -74 -105 -122q-13 -18 -12.5 -26.5t23.5 -0.5zM423 642l64 -1h-1q-24 -5 -56 -60q-5 -8 -9 -17q-12 -22 -24 -50h-201q-174 -514 -160 -586q-68 -9 -87 24.5t2 113.5q20 78 138 448h-214l16 50h214q24 72 44 133q3 11 12.5 18t21.5 7h119
q-4 -1 -10.5 -4.5t-22.5 -23.5t-27 -49q-15 -42 -29 -81h98l22 55q10 25 35 25l54 -2h1z" />
    <glyph glyph-name="tk.liga" unicode="tk" horiz-adv-x="570" 
d="M322 124q19 -17 40.5 -29.5t50 -21t62 -3t66.5 26.5q-16 -41 -40 -64.5t-47 -29t-47.5 -1.5t-42.5 14t-30 22q-33 31 -65 85q-21 -75 -30.5 -125.5t-6.5 -69.5q-68 -9 -87 24.5t2 113.5q20 78 138 448h-89q-174 -514 -160 -586q-68 -9 -87 24.5t2 113.5q20 78 138 448
h-214l16 50h214q24 72 44 133q3 11 12.5 18t21.5 7h119q-4 -1 -10.5 -4.5t-22.5 -23.5t-27 -49q-15 -42 -29 -81h88q24 72 44 133q3 11 12.5 18t21.5 7h119q-4 -1 -10.5 -4.5t-22.5 -23.5t-27 -49q-75 -213 -129 -385q4 6 11 19q60 111 88 148.5t63 37.5q11 0 24.5 -6
t27.5 -22t20 -40t-2.5 -65t-36.5 -92q-21 -39 -46.5 -65.5t-48.5 -37t-46.5 -15t-40.5 1.5zM455 425q-9 11 -42 -41q-16 -25 -63 -109q-36 -65 -59 -103l4 -2q24 -5 55.5 24t64.5 86q20 35 32 68t12.5 50.5t-4.5 26.5z" />
    <glyph glyph-name="tl.liga" unicode="tl" horiz-adv-x="390" 
d="M499 722q-4 -1 -10.5 -4.5t-22.5 -23.5t-27 -49q-82 -232 -148.5 -450.5t-57.5 -266.5q-68 -9 -87 24.5t2 113.5q20 78 138 448h-90q-174 -514 -160 -586q-68 -9 -87 24.5t2 113.5q20 78 138 448h-214l16 50h214q24 72 44 133q3 11 12.5 18t21.5 7h119q-1 0 -3.5 -1
t-10 -7t-14.5 -13.5t-16 -22.5t-16 -33q-15 -42 -29 -81h89q24 72 44 133q2 8 7 13.5t12 8.5t15 3h119z" />
    <glyph glyph-name="tt.liga" unicode="tt" horiz-adv-x="375" 
d="M405 564h199l-16 -50h-200q-175 -514 -160 -586q-69 -9 -88 24.5t3 113.5q19 78 138 448h-85q-71 -211 -119.5 -378.5t-40.5 -207.5q-68 -9 -87 24.5t2 113.5q20 78 138 448h-214l16 50h214q24 72 44 133q3 11 12.5 18t21.5 7h119q-1 0 -3.5 -1t-10 -7t-14.5 -13.5
t-16 -22.5t-16 -33q-15 -42 -29 -81h84q23 72 43 133q4 11 13.5 18t20.5 7h120q-4 -1 -10.5 -4.5t-23 -23.5t-27.5 -49q-15 -42 -28 -81z" />
    <glyph glyph-name="Ba.liga" unicode="Ba" horiz-adv-x="1430" 
d="M1433 233h41l-181 -232q-21 -5 -49 -1q-42 6 -46.5 51t21.5 123q-54 -96 -96.5 -137.5t-87.5 -43.5q-10 0 -21 1.5t-24.5 8.5t-24 18.5t-17 32.5t-5.5 49.5t12 71.5t34 95q24 56 53 97q-85 -27 -148 -48q8 -74 -34 -171.5t-147 -202.5q-141 -140 -336 -182
q-150 -32 -246 9q-83 36 -68 109q3 11 7 23q48 118 258 237l45 145q-38 -17 -71 -30l-11 55q54 27 106 50q56 178 107 336q4 11 13.5 18t21.5 7h119q-4 -1 -10.5 -4.5t-22.5 -23.5t-28 -49q-40 -116 -77 -226q253 143 307 292q27 76 -66 89q-104 15 -275 -46
q-188 -67 -285 -166q-82 -83 -62 -162q-64 6 -83 59t18 127q38 73 111.5 133t159 96.5t180 54.5t175 14.5t142.5 -31t84 -76.5q11 -28 10.5 -56.5t-15 -59t-37 -60t-56 -60.5t-71 -60t-82.5 -58q129 15 188 -51q11 -12 18 -29q106 34 231 71q28 19 57 23.5t48 -1t31 -16.5
q35 -31 33 -81q15 31 28 59v1q4 11 6 16q4 11 13.5 17.5t20.5 6.5h79h32q-4 -1 -10.5 -4.5t-22.5 -23.5t-28 -50q-61 -161 -76 -205l-0.5 -1.5l-0.5 -1.5q-7 -21 -12 -39q-2 -5 -3 -9q-2 -10 -5 -24q-2 -5 -2 -9q-5 -21 -7 -42q95 114 140 177zM495 343q-24 -76 -43 -139
q138 65 325 130q-5 19 -16 31q-19 19 -61 20.5t-93 -10t-112 -32.5zM619 14q140 148 159 265q-210 -74 -345 -141q-48 -172 -41 -210q-68 -9 -87 24.5t2 113.5l0.5 1l0.5 1q-123 -79 -165 -159q-29 -56 34 -73q74 -19 201 26q145 52 241 152zM1051 48q37 -42 138 138
q26 46 57 106q9 40 8.5 65t-7 37t-17.5 14q-32 4 -70 -39t-74 -122q-22 -49 -33 -93t-10.5 -70t8.5 -36z" />
    <glyph glyph-name="Bc.liga" unicode="Bc" horiz-adv-x="1301" 
d="M1053 55q25 -31 102.5 26.5t148.5 151.5h38q-36 -45 -71.5 -83.5t-77 -75.5t-83 -59t-75.5 -22q-10 0 -20.5 2t-24.5 9t-24.5 18t-17.5 32.5t-6 49.5t12 71t34 95q19 46 42 82q-88 -28 -135 -43q5 -74 -38 -168t-144 -196q-141 -140 -336 -182q-150 -32 -246 9
q-83 36 -68 109q3 11 7 23q49 120 258 235q17 56 45 147q-38 -17 -71 -30l-11 55q54 27 106 50q56 178 107 336q4 11 13.5 18t21.5 7h119q-4 -1 -10.5 -4.5t-22.5 -23.5t-28 -49q-40 -116 -77 -226q253 143 307 292q27 76 -66 89q-104 15 -275 -46q-188 -67 -285 -166
q-82 -83 -62 -162q-64 7 -83 59.5t18 126.5q38 73 111.5 133t159 96.5t180 54.5t175 14.5t142.5 -31t84 -76.5q11 -29 10.5 -57t-15 -58.5t-37 -60t-56 -60.5t-71 -60t-82.5 -58q129 15 188 -51q13 -15 22 -39q87 28 201 61q30 27 61.5 37.5t53.5 8t39 -12.5q14 27 31 46
h108q-29 -19 -55 -50t-41 -59.5t-24 -50t-9 -28.5q-52 20 -29 97q-31 -1 -66.5 -43.5t-69.5 -117.5q-22 -49 -32.5 -91.5t-9 -66.5t9.5 -34zM495 343q-25 -79 -44 -143q136 61 327 125q-4 26 -17 40q-19 19 -61 20.5t-93 -10t-112 -32.5zM619 14q134 141 157 255
q-214 -72 -344 -134q-47 -170 -40 -207q-68 -9 -87 24.5t2 113.5v1h1q-122 -76 -165 -158q-28 -56 34 -73q74 -19 201 26q145 52 241 152z" />
    <glyph glyph-name="Bd.liga" unicode="Bd" horiz-adv-x="1431" 
d="M1545 722q-3 -1 -9.5 -4.5t-23 -23.5t-27.5 -49q-82 -232 -148.5 -450.5t-56.5 -266.5q-69 -9 -88 24.5t2 113.5q10 38 49 165q-66 -129 -114.5 -182t-99.5 -56q-10 0 -21 1.5t-24.5 8.5t-24 18.5t-17 32.5t-5.5 49.5t12 71.5t34 95q20 47 44 84q-82 -26 -132 -42
q5 -74 -37.5 -169t-144.5 -198q-141 -140 -336 -182q-150 -32 -246 9q-83 36 -68 109q3 11 7 23q50 121 258 237q17 57 45 145q-38 -16 -71 -30l-11 55q54 27 106 50q56 178 107 336q4 11 13.5 18t21.5 7h119q-4 -1 -10.5 -4.5t-22.5 -23.5t-28 -49q-40 -116 -77 -226
q253 143 307 292q27 76 -66 89q-104 15 -275 -46q-188 -67 -285 -166q-82 -83 -62 -162q-64 7 -83 59.5t18 126.5q38 73 111.5 133t159 96.5t180 54.5t175 14.5t142.5 -31t84 -76.5q11 -28 10.5 -56.5t-15 -59t-37 -60t-56 -60.5t-71 -60t-82.5 -58q129 15 188 -51
q13 -14 21 -36q85 27 200 61v-1q32 29 66.5 38.5t57.5 4t37 -17.5q33 -30 31 -80q15 33 30 65q46 143 86 265q3 11 13 18t21 7h119zM495 343q-25 -78 -43 -141q135 62 326 125q-4 25 -17 38q-19 19 -61 20.5t-93 -10t-112 -32.5zM619 14q136 143 157 258q-213 -73 -343 -135
q-48 -171 -41 -209q-68 -9 -87 24.5t2 113.5v1l1 2q-122 -78 -165 -160q-29 -56 34 -73q74 -19 201 26q145 52 241 152zM1045 48q37 -42 138 138q26 46 56 106q10 40 9.5 65t-7 37t-17.5 14q-32 4 -70 -39t-74 -122q-22 -49 -33 -93t-10.5 -70t8.5 -36z" />
    <glyph glyph-name="Be.liga" unicode="Be" horiz-adv-x="1302" 
d="M1307 233h38q-36 -45 -71.5 -83.5t-77 -75.5t-83 -59t-75.5 -22q-10 0 -20.5 2t-24.5 9t-24.5 18t-17.5 32.5t-6 49.5t12 71t34 95q18 44 40 79q-98 -31 -136 -44q4 -73 -39 -166.5t-143 -193.5q-141 -140 -336 -182q-150 -32 -246 9q-83 36 -68 109q3 11 7 23
q49 120 257 234q17 55 46 148q-38 -17 -71 -30l-11 55q54 27 106 50q56 178 107 336q4 11 13.5 18t21.5 7h119q-4 -1 -10.5 -4.5t-22.5 -23.5t-28 -49q-40 -116 -77 -226q253 143 307 292q27 76 -66 89q-104 15 -275 -46q-188 -67 -285 -166q-82 -83 -62 -162
q-64 7 -83 59.5t18 126.5q38 73 111.5 133t159 96.5t180 54.5t175 14.5t142.5 -31t84 -76.5q11 -29 10.5 -57t-15 -58.5t-37 -60t-56 -60.5t-71 -60t-82.5 -58q129 15 188 -51q14 -16 23 -42q81 26 199 60q33 32 69.5 42.5t60 5.5t38.5 -17q46 -37 32 -101q-11 -51 -61 -86
t-146 -37q-17 -43 -24.5 -79.5t-6.5 -58t9 -30.5q25 -31 102.5 26.5t148.5 151.5zM495 343q-25 -79 -45 -145q136 60 329 124q-4 28 -18 43q-19 19 -61 20.5t-93 -10t-112 -32.5zM619 14q132 139 156 252q-215 -72 -343 -133q-47 -168 -40 -205q-68 -9 -87 24.5t2 113.5v1
q-121 -76 -164 -158q-28 -56 34 -73q74 -19 201 26q145 52 241 152zM1232 408q-21 3 -44.5 -14.5t-48 -52.5t-47.5 -85q45 0 78.5 11t50.5 27.5t25 31t10 27.5q3 24 -4.5 38.5t-19.5 16.5z" />
    <glyph glyph-name="Bg.liga" unicode="Bg" horiz-adv-x="1443" 
d="M1488 233q-15 -12 -42 -31.5t-67 -48.5t-69 -50q-26 -79 -46 -147q-31 -98 -75 -147.5t-115 -53.5q-55 -3 -73 34t13 87q36 58 172 167q1 2 2 6.5t2.5 8t2.5 6.5q6 20 11 37q19 59 38 117q-64 -121 -111.5 -172t-96.5 -53q-10 0 -21 1.5t-24.5 8.5t-24 18.5t-17 32.5
t-5.5 49.5t12 71.5t34 95q19 44 40 79q-96 -31 -133 -43q4 -73 -39 -166.5t-143 -194.5q-141 -140 -336 -182q-150 -32 -246 9q-83 36 -68 109q3 11 7 23q49 121 258 234q17 57 45 148q-38 -16 -71 -30l-11 55q54 27 106 50q56 178 107 336q4 11 13.5 18t21.5 7h119
q-1 0 -3.5 -1t-10 -7t-14.5 -13.5t-16 -22.5t-17 -33q-40 -116 -77 -226q253 143 307 292q27 76 -66 89q-104 15 -275 -46q-188 -67 -285 -166q-82 -83 -62 -162q-64 7 -83 59.5t18 126.5q38 73 111.5 133t159.5 96.5t180 54.5t174.5 14.5t142.5 -31t84 -76.5
q11 -28 10.5 -56.5t-15 -59t-37 -60t-56 -60.5t-71 -60t-82.5 -58q129 15 188 -51q14 -16 23 -41q80 25 196 59q25 24 52 36.5t49 13t38.5 -5t27.5 -14.5q34 -30 31 -80q15 31 29 61q2 5 4 13q4 11 13.5 18t20.5 7h87h33q-4 -1 -10.5 -4.5t-23 -23.5t-27.5 -50
q-44 -124 -81 -239q30 23 70 51.5t47 33.5h46zM495 343q-25 -79 -44 -144q135 60 328 124q-4 27 -18 42q-19 19 -61 20.5t-93 -10t-112 -32.5zM619 14q132 139 156 253q-215 -72 -343 -133q-47 -169 -40 -206q-68 -9 -87 24.5t2 113.5v1q-121 -76 -164 -158q-28 -56 34 -73
q74 -19 201 26q145 52 241 152zM1050 48q37 -42 138 138q26 46 56 106q10 40 9.5 65t-7 37t-17.5 14q-32 4 -70 -39t-74 -122q-22 -49 -33 -93t-10.5 -70t8.5 -36zM1061 -205q49 17 98 161q4 11 12 39q-108 -92 -138 -150q-11 -20 -2.5 -38.5t30.5 -11.5z" />
    <glyph glyph-name="Bo.liga" unicode="Bo" horiz-adv-x="1349" 
d="M1281 241q39 -6 80 -2l-9 -30q-41 -4 -81 2h-1q-8 -21 -9 -24q-25 -60 -57 -101.5t-63.5 -60t-59 -24.5t-50.5 -2v-1q-6 2 -13 5q-12 4 -19 11h-1q-88 64 -20 256q7 21 22 48q-39 -13 -105 -33q-1 -46 -18 -96.5t-59 -115t-105 -128.5q-141 -140 -336 -182
q-150 -32 -246 9q-83 36 -68 109q3 11 7 23q49 120 255 226q18 59 48 156q-38 -17 -71 -30l-11 55q53 27 106 50q56 178 107 336q4 11 13.5 18t21.5 7h119q-4 -1 -10.5 -4.5t-22.5 -23.5t-28 -49q-40 -116 -77 -226q253 143 307 292q27 76 -66 89q-104 15 -275 -46
q-188 -67 -285 -166q-82 -83 -62 -162q-64 6 -83 59t18 127q38 73 111.5 133t159 96.5t180 54.5t175 14.5t142.5 -31t84 -76.5q11 -29 10.5 -57t-15 -58.5t-37 -60t-56 -60.5t-71 -60t-82.5 -58q129 15 188 -51q20 -22 28 -61q27 9 59 18t68 19.5t58 17.5q6 1 13 3
q13 36 51.5 55t74.5 14q14 -3 27 -8t29 -20.5t24 -38t5.5 -63.5t-19.5 -93zM1199 409q-15 15 -37.5 9.5t-35.5 -26.5q17 -5 28 -18q-15 -15 -29 -37q20 -36 63 -63q16 50 18 88.5t-7 46.5zM495 343q-27 -87 -48 -156q131 54 333 117q0 41 -19 61q-19 19 -61 20.5t-93 -10
t-112 -32.5zM619 14q119 125 151 232q-221 -70 -341 -122q-21 -75 -31 -126t-6 -70q-67 -9 -86.5 23.5t0.5 110.5q-120 -71 -163 -153q-28 -56 34 -73q74 -19 201 26q145 52 241 152zM1164 210q6 14 13 32q-44 23 -74 59q-15 -26 -28 -54q-28 -63 -38.5 -118.5t0.5 -78.5
q30 8 63 49.5t64 110.5z" />
    <glyph glyph-name="Bq.liga" unicode="Bq" horiz-adv-x="1438" 
d="M1463 466q-4 -1 -10 -4.5t-21.5 -22t-27.5 -45.5q-113 -351 -151 -504q-27 -106 -21 -135q-68 -9 -87 24.5t2 113.5q12 50 98 329q-64 -124 -111.5 -175.5t-98.5 -53.5q-10 0 -20.5 1.5t-24 8.5t-24 18.5t-17 32.5t-6 49.5t12 71.5t34.5 95q18 43 39 77q-92 -30 -134 -43
q3 -73 -39.5 -166t-142.5 -193q-141 -140 -336 -182q-150 -32 -246 9q-83 36 -68 109q3 11 7 23q49 121 257 233q17 57 46 149q-38 -17 -71 -30l-11 55q54 27 106 50q54 174 107 336q4 11 13.5 18t21.5 7h119q-4 -1 -10.5 -4.5t-22.5 -23.5t-28 -49q-40 -116 -77 -226
q253 143 307 292q27 76 -66 89q-104 15 -275 -46q-188 -67 -285 -166q-82 -83 -62 -162q-64 6 -83 59t18 127q38 73 111.5 133t159 96.5t180 54.5t175 14.5t142.5 -31t84 -76.5q11 -29 10.5 -57t-15 -58.5t-37 -60t-56 -60.5t-71 -60t-82.5 -58q129 15 188 -51
q15 -16 23 -43q78 24 196 59q34 32 70.5 43t60.5 5.5t39 -19.5q33 -29 31 -76q11 25 23 49q6 18 7 24q4 11 13.5 18.5t21.5 7.5h115zM495 343q-25 -80 -45 -146q135 60 329 124q-3 29 -18 44q-19 19 -61 20.5t-93 -10t-112 -32.5zM619 14q131 138 156 251
q-216 -72 -343 -132q-47 -168 -40 -205q-68 -9 -87 24.5t2 113.5v1q-121 -76 -164 -158q-29 -56 34 -73q74 -19 201 26q145 52 241 152zM1052 48q36 -42 138 138q26 46 56 106q10 40 9 65t-7 37t-17 14q-32 4 -70 -39t-74 -122q-22 -49 -33 -93t-10.5 -70t8.5 -36z" />
    <glyph glyph-name="Da.liga" unicode="Da" horiz-adv-x="1497" 
d="M1500 233h42l-182 -232q-21 -5 -49 -1q-42 6 -46 51t21 123q-54 -96 -96.5 -137.5t-87.5 -43.5q-10 0 -20.5 1.5t-24.5 8.5t-24 18.5t-16.5 32.5t-6 49.5t12 71.5t33.5 95q25 58 55 100q-90 -28 -144 -46q-80 -197 -264 -369q-142 -142 -333 -186q-147 -34 -238 7
q-79 35 -60 110q2 9 6 18q45 111 255 226q57 196 179 567q4 11 13.5 18t20.5 7h120q-4 -1 -10.5 -4.5t-23 -23.5t-27.5 -49q-93 -264 -149 -454q158 71 387 147q44 84 65.5 158t14 145.5t-53.5 118.5q-33 32 -85.5 47.5t-112.5 13.5t-127 -18t-129 -43.5t-117 -65t-93 -79.5
t-54.5 -91.5t-3.5 -97.5q-65 7 -88 60t9 127q37 74 102.5 131.5t142 90.5t162 49t164.5 13t147.5 -23t111.5 -55q87 -70 110 -186t-19 -248q84 26 198 60q27 16 54 19t45 -2.5t30 -15.5q34 -31 32 -81q15 31 28 59l1 1q4 11 6 16q4 11 13 17.5t20 6.5h80h32
q-4 -1 -10.5 -4.5t-23 -23.5t-27.5 -50h-1q-61 -161 -75 -205l-0.5 -1.5t-1.5 -1.5q-7 -21 -12 -39q-1 -5 -2 -9q-3 -10 -6 -24q-1 -5 -2 -9q-4 -21 -7 -42q96 114 140 177zM610 32q104 95 194 238q-227 -77 -367 -144q-45 -162 -37 -198q-67 -9 -86.5 23t-0.5 109
q-123 -76 -162 -151q-30 -58 31 -68q74 -14 203 42q131 57 225 149zM1119 48q36 -42 138 138q26 46 56 106q10 40 9 65t-7.5 37t-17.5 14q-31 4 -69.5 -39t-73.5 -122q-23 -49 -33.5 -93t-10 -70t8.5 -36z" />
    <glyph glyph-name="Dc.liga" unicode="Dc" horiz-adv-x="1364" 
d="M1116 55q26 -31 103 26.5t149 151.5h38q-28 -35 -56 -66t-62 -64t-65 -56.5t-64 -38.5t-61 -15q-10 0 -20.5 2t-24.5 9t-24 18t-17 32.5t-6.5 49.5t11.5 71t34 95q25 57 54 98q-89 -28 -138 -44q-80 -197 -264 -369q-142 -142 -333 -186q-147 -34 -238 7q-79 35 -60 110
q2 9 6 18q45 111 255 226q57 196 179 567q4 11 13.5 18t20.5 7h120q-4 -1 -10.5 -4.5t-23 -23.5t-27.5 -49q-93 -264 -149 -454q158 71 387 147q44 84 65.5 158t14 145.5t-53.5 118.5q-33 32 -85.5 47.5t-112.5 13.5t-127 -18t-129 -43.5t-117 -65t-93 -79.5t-54.5 -91.5
t-3.5 -97.5q-65 7 -88 60t9 127q37 74 102.5 131.5t142 90.5t162 49t164.5 13t147.5 -23t111.5 -55q87 -70 110 -186t-19 -248q80 25 190 57q24 16 49 21t43 1.5t32 -11.5q14 27 31 46h109q-38 -24 -70 -69t-45.5 -77t-13.5 -42q-52 20 -30 97q-20 -1 -43 -20.5t-46.5 -55.5
t-46 -85t-32.5 -91.5t-9 -66.5t9 -34zM610 32q104 95 194 238q-227 -77 -367 -144q-45 -162 -37 -198q-67 -9 -86.5 23t-0.5 109q-123 -76 -162 -151q-30 -58 31 -68q74 -14 203 42q131 57 225 149z" />
    <glyph glyph-name="Dd.liga" unicode="Dd" horiz-adv-x="1500" 
d="M1614 722q-1 0 -3.5 -1t-10 -7t-14.5 -13.5t-16 -22.5t-16 -33q-82 -233 -148.5 -451t-56.5 -266q-69 -9 -88 24.5t2 113.5q10 38 49 165q-45 -88 -81 -139t-67.5 -74t-65.5 -25q-10 0 -21 1.5t-24.5 8.5t-24 18.5t-17 32.5t-5.5 49.5t12 71.5t34 95q24 57 54 99
q-91 -29 -139 -45q-80 -197 -264 -369q-142 -142 -333 -186q-147 -34 -238 7q-79 35 -60 110q2 9 6 18q45 111 255 225q57 197 179 568q4 11 13.5 18t20.5 7h120q-4 -1 -10.5 -4.5t-23 -23.5t-27.5 -49q-93 -264 -149 -454q158 71 387 147q44 83 65.5 157.5t14 146
t-53.5 118.5q-33 32 -85.5 47.5t-112.5 13.5t-127 -18.5t-129 -43.5t-117 -64.5t-93 -79.5t-54.5 -91.5t-3.5 -97.5q-65 7 -88 60t9 127q37 74 102.5 131.5t142 90.5t162 49t164.5 13t147.5 -23t111.5 -55q87 -70 110 -186t-19 -248q81 25 190 57q28 18 56.5 22t47.5 -1.5
t31 -15.5q33 -30 31 -80q16 34 30 65q46 143 86 265q3 11 13 18t21 7h119zM610 32q104 95 194 238q-227 -77 -367 -144q-45 -162 -37 -198q-67 -9 -86.5 23t-0.5 109q-123 -76 -162 -151q-30 -58 31 -68q74 -14 203 42q131 57 225 149zM1114 48q37 -42 138 138q26 46 56 106
q10 40 9.5 65t-7 37t-17.5 14q-16 2 -34 -8t-36.5 -31t-37 -52t-36.5 -70q-22 -49 -33 -93t-10.5 -70t8.5 -36z" />
    <glyph glyph-name="De.liga" unicode="De" horiz-adv-x="1365" 
d="M1370 233h38q-36 -45 -71.5 -83.5t-77 -75.5t-83 -59t-75.5 -22q-10 0 -20.5 2t-24.5 9t-24.5 18t-17.5 32.5t-6 49.5t12 71t34 95q24 58 54 99q-89 -28 -141 -45q-80 -197 -264 -369q-142 -142 -333 -186q-147 -34 -238 7q-79 35 -60 110q2 9 6 18q45 111 255 225
q57 197 179 568q4 11 13.5 18t20.5 7h120q-4 -1 -10.5 -4.5t-23 -23.5t-27.5 -49q-93 -264 -149 -454q158 71 387 147q44 83 65.5 157.5t14 146t-53.5 118.5q-33 32 -85.5 47.5t-112.5 13.5t-127 -18.5t-129.5 -43.5t-117 -64.5t-92.5 -79.5t-54.5 -91.5t-3.5 -97.5
q-65 7 -88 60t9 127q37 74 102.5 131.5t142 90.5t162 49t164.5 13t147.5 -23t111.5 -55q87 -70 110 -186t-19 -248q84 26 195 59q27 16 55 19.5t46.5 -1.5t30.5 -15q46 -37 32 -101q-11 -51 -61 -86t-146 -37q-13 -32 -21 -61.5t-9.5 -50.5t0.5 -35t8 -21q25 -31 102.5 26.5
t148.5 151.5zM610 32q104 95 194 238q-227 -77 -367 -144q-45 -162 -37 -198q-67 -9 -86.5 23t-0.5 109q-123 -76 -162 -151q-30 -58 31 -68q74 -14 203 42q131 57 225 149zM1295 408q-31 4 -68 -36.5t-72 -115.5q26 0 49 4t39 10.5t29 15t21 17.5t14 18.5t8.5 17t3.5 14.5
q3 24 -4.5 38.5t-19.5 16.5z" />
    <glyph glyph-name="Dg.liga" unicode="Dg" horiz-adv-x="1509" 
d="M1554 233q-15 -12 -42 -31.5t-67 -48.5t-69 -50q-26 -79 -46 -146q-31 -99 -75 -148.5t-115 -53.5q-55 -3 -73 34t13 87q36 58 172 167q0 1 2.5 9t4.5 12q6 20 11 37q19 59 38 117q-64 -121 -111.5 -172t-96.5 -53q-10 0 -21 1.5t-24.5 8.5t-24 18.5t-17 32.5t-5.5 49.5
t12 71.5t34 95q25 58 54 99q-90 -28 -141 -45q-80 -197 -264 -369q-142 -142 -333 -186q-147 -34 -238 7q-79 35 -60 110q2 9 6 18q45 111 255 226q57 196 179 567q4 11 13.5 18t20.5 7h120q-4 -1 -10.5 -4.5t-23 -23.5t-27.5 -49q-93 -264 -149 -454q158 71 387 148
q44 83 65.5 157t14 145.5t-53.5 118.5q-33 32 -85.5 47.5t-112.5 13.5t-127 -18t-129.5 -43.5t-117 -65t-92.5 -79.5t-54.5 -91.5t-3.5 -97.5q-65 7 -88 60t9 127q37 74 102.5 131.5t142 90.5t162 49t164.5 13t147.5 -23t111.5 -55q87 -70 110 -186t-19 -248q84 26 194 59
q27 16 55 20t46.5 -2t30.5 -16q34 -30 31 -80q14 29 29 61q1 2 2.5 6.5t1.5 6.5q4 11 13.5 18t20.5 7h87h33h-1.5t-3 -1.5t-5.5 -3.5t-7 -5.5t-8 -7.5t-8.5 -10t-9 -13t-9.5 -16.5t-9 -20.5q-44 -124 -81 -239q30 23 70 51.5t47 33.5h46zM610 32q104 94 194 238
q-227 -77 -367 -144q-45 -162 -37 -198q-67 -9 -86.5 23t-0.5 109q-123 -76 -162 -151q-30 -58 31 -68q74 -14 203 42q131 57 225 149zM1116 48q37 -42 138 138q26 46 56 106q10 40 9.5 65t-7 37t-17.5 14q-32 4 -70 -39t-74 -122q-22 -49 -33 -93t-10.5 -70t8.5 -36z
M1127 -205q50 17 98 161q4 11 12 39q-108 -92 -138 -150q-11 -20 -2.5 -38.5t30.5 -11.5z" />
    <glyph glyph-name="Do.liga" unicode="Do" horiz-adv-x="1423" 
d="M1356 241q38 -6 80 -2l-9 -30q-42 -4 -82 2q-8 -21 -10 -24q-25 -60 -57 -101.5t-63.5 -60t-58.5 -24.5t-51 -2v-1q-6 2 -13 5q-12 4 -19 11h-1q-88 64 -19 256q7 20 22 48q-51 -16 -128 -39q-82 -173 -244 -324q-142 -142 -333 -186q-147 -34 -238 7q-79 35 -60 110
q2 9 6 18q46 112 251 214q56 191 183 579q4 11 13.5 18t20.5 7h120q-4 -1 -10.5 -4.5t-23 -23.5t-27.5 -49q-99 -280 -155 -473q141 57 369 124q39 66 64.5 129t37 125t-1 116.5t-50.5 93.5q-33 32 -85.5 47.5t-112.5 13.5t-127 -18t-129 -43.5t-117 -65t-93 -79.5
t-54.5 -91.5t-3.5 -97.5q-65 7 -88 60t9 127q37 74 102.5 131.5t142 90.5t162 49t164.5 13t147.5 -23t111.5 -55q94 -76 113 -204.5t-37 -273.5q132 37 176 51q6 1 13 3q14 36 52 55t75 14q13 -3 26 -8t29 -20.5t24 -38t6 -63.5t-19 -93zM610 32q86 78 167 197
q-223 -67 -344 -117q-40 -149 -33 -184q-66 -9 -85.5 20.5t-2.5 104.5q-122 -68 -161 -144q-30 -58 31 -68q74 -14 203 42q131 57 225 149zM1273 409q-15 15 -37 9.5t-35 -26.5q17 -5 27 -18q-14 -15 -29 -37q20 -36 64 -63q16 50 18 88.5t-8 46.5zM1238 210q7 15 13 32
q-44 23 -74 59q-14 -25 -27 -54q-29 -63 -39 -118.5t1 -78.5q19 5 40.5 25.5t43.5 55t42 79.5z" />
    <glyph glyph-name="Dq.liga" unicode="Dq" horiz-adv-x="1499" 
d="M1524 466q-4 -1 -10 -4.5t-22 -22t-27 -45.5q-113 -351 -151 -504q-27 -106 -21 -135q-68 -9 -87 24.5t2 113.5q12 50 98 329q-64 -124 -111.5 -175.5t-98.5 -53.5q-10 0 -20.5 1.5t-24 8.5t-24 18.5t-17 32.5t-6 49.5t12 71.5t34.5 95q24 57 53 98q-88 -28 -137 -44
q-80 -197 -264 -369q-142 -142 -333 -186q-147 -34 -238 7q-79 35 -60 110q2 9 6 18q45 111 255 226q57 196 179 567q4 11 13.5 18t20.5 7h120q-4 -1 -10.5 -4.5t-23 -23.5t-27.5 -49q-93 -264 -149 -454q158 71 387 147q44 84 65.5 158t14 145.5t-53.5 118.5
q-33 32 -85.5 47.5t-112.5 13.5t-127 -18t-129 -43.5t-117 -65t-93 -79.5t-54.5 -91.5t-3.5 -97.5q-65 7 -88 60t9 127q37 74 102.5 131.5t142 90.5t162 49t164.5 13t147.5 -23t111.5 -55q87 -70 110 -186t-19 -248q83 26 192 58q27 16 55 19.5t46.5 -2.5t30.5 -17
q33 -29 31 -76q11 25 23 49q5 18 7 24q4 11 13.5 18.5t21.5 7.5h115zM610 32q104 94 194 238q-227 -77 -367 -144q-45 -162 -37 -198q-67 -9 -86.5 23t-0.5 109q-123 -76 -162 -151q-30 -58 31 -68q74 -14 203 42q131 57 225 149zM1113 48q36 -42 138 138q26 46 56 106
q10 40 9 65t-7.5 37t-16.5 14q-21 3 -45.5 -15.5t-49.5 -56t-49 -89.5q-22 -49 -33 -93t-10.5 -70t8.5 -36z" />
    <glyph glyph-name="lti.liga" unicode="lti" horiz-adv-x="576" 
d="M621 643l63 -1q-25 -5 -56 -60q-5 -8 -10 -17q-12 -23 -24 -50h-200q-175 -514 -160 -586q-69 -10 -87.5 24t2.5 114q19 78 138 448h-93q-172 -509 -158 -581q-68 -10 -87 24t2 114q29 115 197 631q3 7 8 13t12 9t14 3h120q-4 -1 -10.5 -5t-22.5 -23.5t-28 -48.5l-30 -86
h92q23 72 43 133q4 11 13.5 18t20.5 7h120q-4 -1 -10.5 -5t-23 -23.5t-27.5 -48.5q-15 -42 -28 -81h98q21 54 21 55q10 25 35 25l54 -2h2zM439 56q95 114 140 178h42l-182 -232q-21 -5 -50 -1q-58 8 -43 100q11 64 90 275l25 66q4 11 13.5 17.5t20.5 6.5h79
q-14 -37 -41.5 -109.5t-43 -115.5t-26.5 -76l-1 -4q-15 -45 -18 -71v-2q-3 -14 -5 -32z" />
    <glyph glyph-name="lt.liga" unicode="lt" horiz-adv-x="374" 
d="M404 565h200l-16 -50h-201q-174 -514 -160 -586q-68 -10 -87 24t2 114q20 78 138 448h-84q-175 -514 -160 -586q-68 -10 -87 24t2 114q29 115 197 631q4 11 13.5 18t20.5 7h120q-4 -1 -10.5 -5t-22.5 -23.5t-28 -48.5q-15 -42 -28 -81h83q24 72 44 133q3 11 12.5 18
t21.5 7h119q-1 0 -3.5 -1.5t-10 -7t-14.5 -13t-16 -22.5t-16 -33q-15 -42 -29 -81z" />
    <glyph glyph-name="ov.liga" unicode="ov" horiz-adv-x="726" 
d="M714 490q3 -48 -8 -101.5t-31.5 -101t-47.5 -93.5t-54 -81t-53 -61q-42 -43 -85.5 -61t-66.5 -5q-23 12 -33.5 35t-11 51.5t11 75t26.5 92.5t41 117q-41 -42 -86 -66q-10 -47 -34 -103q-25 -59 -57 -100.5t-63.5 -60.5t-59 -25t-50.5 -1v-2q-6 2 -13 5q-12 4 -19 11h-1v1
q-88 63 -20 255q8 22 30 61q3 4 4 7q4 6 5 7q11 18 26 29q15 13 33 18q6 2 13 3q14 36 52 55.5t74 13.5q14 -2 27 -8t29 -19.5t24.5 -40.5t5.5 -64q69 41 112 111q8 21 31 21h113q-4 -1 -10.5 -4.5t-22 -22t-26.5 -46.5q-84 -221 -94 -272q-8 -45 9 -54q10 -6 62 55
q43 49 80 124.5t52 157t-16 136.5q10 11 24 15.5t27 1.5t24 -10.5t18.5 -22t8.5 -33.5zM220 410q-15 16 -37 10t-36 -26q17 -6 28 -19q-15 -15 -31 -39q25 -35 73 -36q11 41 11 72t-8 38zM185 211q12 28 21 54q-46 5 -82 39q-14 -26 -27 -56q-29 -63 -39.5 -118.5t0.5 -78.5
q30 8 63 50t64 110z" />
    <glyph glyph-name="ow.liga" unicode="ow" horiz-adv-x="892" 
d="M878 490q11 -121 -33 -243.5t-115 -194.5q-21 -22 -44 -38t-42.5 -23.5t-37.5 -9.5t-28 5q-35 19 -42 62q-1 7 -1 19l-15 -15q-43 -43 -86 -61t-66 -5q-19 10 -30 26.5t-13 41.5t1 52.5t15 69.5t25.5 82t34.5 98q-40 -41 -85 -65q-10 -47 -34 -103q-25 -59 -57 -100.5
t-63.5 -60.5t-59 -25t-50.5 -1v-2q-6 2 -13 5q-12 4 -19 11h-0.5t-0.5 1q-88 63 -20 255q8 22 30 61q3 4 4 7q4 6 5 7q11 18 26 29q15 13 33 18q6 2 13 3q14 36 52 55.5t74 13.5q14 -2 27.5 -8t29 -19.5t24 -40.5t5.5 -64q68 40 111 109v1q9 22 32 22h37h75q-3 -1 -9.5 -4.5
t-22 -22t-27.5 -46.5l-1 -3q-83 -219 -92 -270q-8 -44 9 -53q9 -6 62 55q38 43 72 110l0.5 0.5t0.5 1.5h100l0.5 1t0.5 2v-2t-1 -1q-18 -52 -27 -85t-9 -54.5t11 -27.5q6 -4 27 16t36 39q42 57 65.5 149t23.5 182q0 52 -21 87q20 17 41.5 18t40 -17.5t21.5 -49.5zM220 410
q-15 16 -37 10t-36 -26q17 -6 28 -19q-15 -16 -31 -39q25 -35 73 -36q11 41 11 72t-8 38zM185 211q12 28 21 54q-46 5 -82 39q-14 -26 -27 -56q-29 -63 -39.5 -118.5t0.5 -77.5q30 7 63 49t64 110z" />
    <glyph glyph-name=".notdef" horiz-adv-x="527" 
d="M50 700h427v-700h-427v700zM78 680l185 -309l186 309h-371zM251 350l-180 300v-601zM264 329l-185 -308h370zM276 350l181 -303v605z" />
    <glyph glyph-name=".null" horiz-adv-x="0" 
 />
    <glyph glyph-name=".null" horiz-adv-x="0" 
 />
    <glyph glyph-name="nonmarkingreturn" horiz-adv-x="333" 
 />
    <glyph glyph-name="controlLF" unicode="&#xa;" horiz-adv-x="0" 
 />
    <glyph glyph-name="controlCR" unicode="&#xd;" horiz-adv-x="0" 
 />
    <glyph glyph-name="space" unicode=" " horiz-adv-x="296" 
 />
    <glyph glyph-name="exclam" unicode="!" horiz-adv-x="322" 
d="M129 17q31 0 49 -21q19 -22 14 -57q-3 -20 -13.5 -36t-27.5 -25t-37 -9q-30 0 -48 21q-20 22 -15 56q4 31 26 51t52 20zM261 677q14 -16 10 -41l-84 -529q-3 -19 -16 -32t-29 -13t-27 12q-14 16 -11 40l65 528q3 21 16 34.5t30 13.5h19q16 0 27 -13z" />
    <glyph glyph-name="quotedbl" unicode="&#x22;" horiz-adv-x="424" 
d="M238 892l-15 -35q-15 -38 -39 -82.5t-41 -67.5l-6 -8l-87 -11l19 38q34 68 55 140l5 15zM265 881l109 11l-14 -35q-11 -25 -25.5 -54t-29 -55t-26.5 -41l-5 -8l-88 -11l19 39q33 62 55 139z" />
    <glyph glyph-name="numbersign" unicode="#" horiz-adv-x="619" 
d="M555 396h-96l-30 -114h86l-13 -97h-100l-56 -203h-100l55 203h-69l-56 -203h-100l56 203h-82l14 97h96l31 114h-86l14 97h100l55 198h98l-54 -198h69l55 198h99l-54 -198h82zM360 396h-69l-31 -114h69z" />
    <glyph glyph-name="dollar" unicode="$" horiz-adv-x="568" 
d="M336 392q83 -36 116.5 -83.5t23.5 -116.5q-9 -62 -58.5 -114t-130.5 -67l-15 -108h-84l15 105q-82 4 -136 40l-17 11l42 83l21 -13q55 -34 124 -34q52 0 88.5 27t42.5 69q4 34 -15 60t-78 52q-37 15 -63.5 30.5t-50.5 38t-33.5 53t-4.5 68.5q9 65 58 111.5t122 59.5
l15 105h83l-15 -101q65 -4 112 -31l20 -11l-43 -82l-21 12q-47 26 -107 26q-51 0 -81 -24.5t-35 -58.5t17 -56t88 -51z" />
    <glyph glyph-name="percent" unicode="%" horiz-adv-x="861" 
d="M409 480q-6 -41 -19 -76.5t-32 -63t-43.5 -47t-53.5 -30t-61 -10.5q-68 0 -108 46q-54 62 -39 178q15 101 72.5 163t137.5 62q71 0 111 -46q52 -60 35 -176zM300 482q12 85 -14 115q-12 14 -33 14q-32 0 -57 -38t-34 -99q-13 -81 15 -115q12 -15 32 -15q22 0 40.5 16.5
t31.5 47.5t19 74zM772 378q51 -59 35 -176q-7 -48 -23 -87.5t-37 -65t-46.5 -42.5t-51 -24.5t-50.5 -7.5q-68 0 -109 47q-54 61 -38 176q14 101 72 163.5t137 62.5q71 0 111 -46zM560 196q-13 -81 16 -115q12 -15 32 -15q34 0 57.5 36.5t33.5 101.5q12 85 -15 115
q-11 14 -32 14q-33 0 -58 -38t-34 -99zM637 702h103l-519 -731h-103z" />
    <glyph glyph-name="ampersand" unicode="&#x26;" horiz-adv-x="782" 
d="M721 120l11 -3l-5 -9q-16 -34 -62 -34q-10 0 -21 2q-20 5 -42 12q-8 3 -13 4q-16 6 -34 14q-68 -49 -146 -80t-138 -31q-85 0 -143 37q-50 31 -68.5 81.5t-2.5 111.5q15 56 57 104t117 96q-8 15 -15 28l-1 3q-8 20 -14 41q-29 92 -7.5 171.5t89.5 128.5q83 61 201 61
q98 0 160 -44q41 -29 55 -73t-1 -96q-7 -24 -20.5 -46t-36.5 -43t-42.5 -36.5t-54.5 -35.5t-56 -31.5t-62 -33.5q-42 -22 -65 -34q65 -105 171 -177q93 91 129 210l3 7l8 -1q23 -5 35 -30q11 -27 7.5 -68t-21.5 -71q-30 -50 -77 -96q53 -25 105 -39zM338 726
q-30 -27 -43 -81.5t2 -118.5q2 -8 6 -18l9 -23q1 -3 4 -10q22 12 63 33q188 98 223 168q25 49 11 82q-7 18 -28 24q-32 10 -68 10q-103 0 -179 -66zM236 62q48 0 111 25t121 67q-105 69 -185 185q-110 -71 -128 -140q-4 -21 -5 -46t11.5 -49.5t35.5 -34.5q15 -7 39 -7z" />
    <glyph glyph-name="quotesingle" unicode="'" horiz-adv-x="289" 
d="M129 881l110 11l-14 -35q-17 -40 -40.5 -84t-40.5 -67l-6 -7l-88 -11l20 39q32 62 55 139z" />
    <glyph glyph-name="parenleft" unicode="(" horiz-adv-x="1855" 
d="M135 714v11v79v9v7q0 3 -2 3l-12 4l-1 4h25h15h14q23 0 35 -9t12 -26q0 -21 -14 -33q-12 -11 -38 -11h-15v-27v-11v-8q2 -3 3 -3l13 -4l1 -4h-26h-24l-1 4l12 3q3 2 3 3v9zM154 823v-62q10 -2 14 -2q15 0 23 8t8 25q0 16 -7 24q-7 7 -25 7h-13zM276 692q-22 0 -34 12
q-14 12 -14 34q0 20 13 36q12 13 33 13q17 0 26 -10q10 -10 10 -28v-6h-62q0 -20 10 -30q10 -9 31 -9q6 0 20 2v-4q-5 -4 -17 -8q-10 -2 -16 -2zM256 771q-7 -9 -7 -20h41v3q0 15 -4 20q-5 6 -13 6q-11 0 -17 -9zM336 705v12v33q0 18 -1 24l-13 3v3q11 3 31 7h1v-12
q18 12 35 12h1l-6 -30l-4 -1q-1 2 -1.5 4t-1 3.5l-1 3t-1.5 2.5q-3 5 -8 5q-7 0 -13 -5v-42v-21q0 -2 2 -4l13 -3l1 -4h-25h-23v4l11 3q3 0 3 3zM430 700q8 0 14 4t6 11q0 5 -4 9t-12 7l-10 3q-14 5 -18 11q-5 7 -5 15q0 13 10 20q8 7 25 7q16 0 27 -4q-1 -4 -2.5 -11.5
t-2.5 -11.5l-4 -1l-6 18q-8 2 -12 2q-10 0 -15 -4q-5 -3 -5 -9t3 -10q5 -4 14 -6l8 -3q10 -3 19 -10q7 -6 7 -16q0 -13 -11 -21t-26 -8q-14 0 -31 6q2 5 4 14.5t2 10.5h4l7 -20q4 -3 14 -3zM526 692q-20 0 -33 13q-12 13 -12 34q0 22 13 35t34 13t33 -12q12 -13 12 -33
q0 -23 -13 -36q-14 -14 -34 -14zM507 770q-6 -9 -6 -29q0 -19 7 -30q6 -11 20 -11q12 0 19 10q6 10 6 30q0 19 -7 29q-6 11 -20 11q-11 0 -19 -10zM600 705v12v33v24l-13 3v3q4 1 30 7h1v-12q18 12 32 12t22 -7q7 -8 7 -22v-35q0 -5 0.5 -11t0.5 -7q0 -3 2 -3l11 -3v-4h-22
h-21l-1 4l10 2q2 2 2 3v7v42q0 12 -5 17t-17 5q-9 0 -21 -5v-43q0 -4 0.5 -11.5t0.5 -10.5t2 -3l10 -3v-4h-21h-23v4l11 3q2 0 2 3zM732 692q-15 0 -22 7q-8 5 -8 19q0 15 13 22q16 7 42 7v7q0 11 -6 17q-5 5 -17 5q-10 0 -22 -4l-2 7q16 8 33 8q16 0 24 -7q9 -9 8 -23v-40
v-8q0 -3 2 -5t4 -2q2 -1 8 -1v-4q-2 -1 -10 -3l-8 -2q-10 0 -13 10q-13 -10 -26 -10zM729 735q-7 -4 -7 -14t4 -13q5 -4 14 -4q10 0 17 3v32q-21 0 -28 -4zM811 827l-13 4v4q22 4 31 6h1v-44v-64v-28q0 -3 3 -3l10 -3v-4h-22h-23v4l11 3q2 0 2 3v24v40v58zM917 823l-12 4v4
h24h24v-4l-12 -4q-2 0 -2 -3q0 -5 -1 -7v-9v-53q0 -29 9 -39q9 -11 29 -11t29 12q9 11 9 37v54v9q0 1 -0.5 3.5t-0.5 3.5q0 3 -2 3l-12 4v4h21h21v-4l-12 -4q-2 0 -2 -3v-7v-9v-50q0 -31 -13 -47t-41 -16q-27 0 -41 14q-13 15 -13 43v56v9v7q0 3 -2 3zM1080 700q8 0 14 4
t6 11q0 5 -4 9q-3 4 -12 7l-10 3q-14 5 -18 11q-5 7 -5 15q0 13 10 20q8 7 25 7q16 0 27 -4q-1 -4 -2.5 -11.5t-2.5 -11.5l-4 -1l-6 18q-8 2 -12 2q-10 0 -15 -4q-5 -3 -5 -9t3 -10q5 -4 14 -6l8 -3q8 -3 20 -10q6 -6 6 -16q0 -13 -11 -21t-26 -8t-30 6q1 4 2.5 12.5
t2.5 12.5h4l7 -20q4 -3 14 -3zM1179 692q-22 0 -35 12q-13 13 -13 34t12 36q12 13 33 13q18 0 27 -10q10 -12 10 -28q0 -1 -0.5 -3t-0.5 -3h-61q0 -21 10 -30q9 -9 30 -9q6 0 20 2l1 -4q-7 -5 -17 -8q-12 -2 -16 -2zM1158 771q-5 -7 -7 -20h42v3q0 13 -5 20q-4 6 -13 6
q-11 0 -17 -9zM1342 691q-32 0 -51 19q-17 20 -17 51q0 35 19 54t53 19q33 0 51 -18q17 -19 17 -50q0 -35 -19 -54q-19 -21 -53 -21zM1306 811q-11 -16 -11 -46q0 -33 13 -49q12 -17 37 -17t36 15q12 16 12 49q0 31 -12 47q-13 16 -38 16t-37 -15zM1443 705v12v33v24l-13 3
v3q11 3 31 7v-12q18 12 32 12t22 -7q8 -10 8 -22v-35v-18q0 -3 2 -3l11 -3v-4h-22h-21l-1 4l10 2q2 2 2 3v7v42q0 13 -5 17q-5 5 -17 5q-8 0 -20 -5v-43v-22q0 -3 2 -3l10 -3v-4h-21h-23v4l11 3q2 0 2 3zM1559 827l-14 4v4q22 4 32 6h1q-1 -11 -1 -44v-64v-28q0 -3 3 -3
l11 -3v-4h-23h-22l-1 4l11 3q3 0 3 3v24v40v58zM1599 778l-8 3v4h21h21l1 -4l-12 -3q1 -3 4 -10.5l5 -12.5q6 -16 10 -25q0 -1 5 -13q1 5 5 15q2 4 5 11.5t4 10.5q4 10 9 24l-11 3v4h16h17l1 -4l-9 -2q-4 -2 -5 -4t-3.5 -8.5t-3.5 -10.5q-8 -18 -20 -49q-6 -18 -8 -27
q-3 -15 -6 -23q0 -5 -3 -7q-3 -3 -13 -3q-13 0 -19 1l-1 4q11 1 16 6q6 6 20 36v2h-1q-7 18 -19 47t-13 31q-2 4 -5 4zM1724 692q-4 0 -9 3q-3 5 -3 9q0 5 3 8q5 3 9 3q5 0 8 -3q4 -4 4 -8q0 -3 -4 -9q-3 -3 -8 -3zM1727 734l-6 -1l-8 93l22 1h1zM808 590h20h20l1 -4l-10 -3
q-4 -2 -5 -3q-4 -7 -4 -9l-47 -112l-10 -1l-41 113l-2.5 5t-1.5 4l-6 3l-9 3v4h22h26v-4l-9 -3q-2 0 -2 -1q-1 -1 -1 -3t1 -5q0 -1 1 -3.5t2 -4.5l30 -84l33 84l3 9q1 2 1 5q0 2 -1 2q0 1 -3 1l-8 3v4zM862 469v12v31v23l-13 3v3q6 1 17 4t13 3l1 -1v-27v-36v-15q0 -3 2 -3
l11 -4v-3h-22h-22v3l11 4q2 0 2 3zM869 570q-4 0 -7 3t-3 7q0 5 3 8t8 3q4 0 8 -2q3 -3 3 -8q0 -4 -4 -8q-3 -3 -8 -3zM959 464q-11 -8 -26 -8q-14 0 -29 6q4 16 5 24h4l7 -20q6 -2 13 -2q10 0 14 4q6 3 6 10q0 5 -4 9q-3 4 -11 6l-10 4q-12 3 -17 10q-5 5 -5 14q0 13 9 20
q11 7 25 7q10 0 26 -4q-4 -13 -5 -23l-4 -1l-6 18q-6 2 -12 2q-9 0 -14 -4q-5 -3 -5 -9t3 -9q5 -3 13 -6l8 -3q14 -5 19 -10q6 -6 6 -15q0 -13 -10 -20zM994 469v12v31v23l-13 3v3q6 1 17 4t13 3l1 -1v-27v-36v-15q0 -3 2 -3l11 -4v-3h-22h-22v3l11 4q2 0 2 3zM1009 573
q-3 -3 -8 -3q-4 0 -7 3t-3 7q0 5 3 8t8 3q4 0 8 -2q2 -4 2 -8q0 -5 -3 -8zM1033 539l-1 4l15 1l6 23q4 1 10 3l1 -1v-21v-4h28v-9h-28q-1 -21 -1 -51q0 -10 3 -13q3 -4 11 -4q3 0 17 2v-4q-13 -8 -28 -8q-12 0 -16 5q-5 7 -5 17q0 31 1 57zM358 236l11 -3v-5q-8 1 -19 1
q-12 0 -20 -1v4l12 4q2 0 2 3v18v76v16q0 3 -2 3l-12 4v4q4 0 10.5 -0.5t8.5 -0.5q1 0 4 0.5t5 0.5l78 -98v72v15q0 3 -2 3l-11 4l-1 4q4 0 11 -0.5t9 -0.5t8.5 0.5t10.5 0.5v-4l-11 -4q-3 0 -3 -3v-16v-104l-8 -1l-84 105v-76v-18q0 -3 3 -3zM497 226q-14 0 -21 7
q-8 5 -8 18q0 14 13 21q14 7 40 7v7q0 9 -5 16q-7 5 -17 5t-21 -4l-2 7q19 8 32 8t23 -8q8 -8 8 -21l-1 -39q0 -6 1 -8q0 -4 1 -5q0 -1 2 -1t2 -1h8v-4q-6 -2 -10 -3l-8 -2q-9 0 -12 10q-13 -10 -25 -10zM494 267q-7 -4 -7 -13q0 -10 5 -13q4 -4 13 -4t16 4v30q-20 0 -27 -4
zM591 369v-25v-37q17 11 30 11t21 -8q8 -6 8 -21v-33v-17q0 -2 2 -4l11 -3v-4q-8 1 -22 1q-13 0 -20 -1l-1 4l10 3q2 0 2 3v6v41q0 11 -5 16t-17 5q-10 0 -19 -4v-42v-22q0 -1 2 -3l10 -3v-4q-7 1 -21 1q-13 0 -21 -1l-1 4l11 3q2 2 2 3v23v39v34v22l-13 4v3q20 4 31 7v-1z
M755 235v-4l-9 -3l-8 -2q-10 0 -13 10q-13 -10 -25 -10q-14 0 -21 6q-8 8 -8 19q0 14 13 21q14 7 40 7v7q0 11 -5 16q-7 5 -17 5q-9 0 -21 -4l-2 7q19 8 32 8t23 -8q8 -8 8 -21v-39v-8q0 -3 2 -5l4 -2h7zM724 240v31q-20 0 -27 -4t-7 -13q0 -10 5 -13q4 -4 13 -4q8 0 16 3z
M777 238v12v32v23l-13 3v3q20 4 30 7l1 -1v-11q17 12 34 12v-1q-4 -17 -5 -29h-4q-4 11 -5 12q-3 5 -8 5q-6 0 -12 -5v-40v-21q0 -3 2 -3l13 -4v-4q-10 1 -24 1q-13 0 -22 -1v4l11 3q2 2 2 3zM859 306q-5 -3 -5 -9t4 -9q3 -3 13 -6l7 -3q14 -5 19 -10q6 -6 6 -15
q0 -13 -10 -20q-10 -8 -25 -8q-16 0 -29 6q1 4 2.5 12t2.5 12h3l7 -20q8 -2 14 -2q9 0 14 4q5 3 5 10q0 6 -4 9q-3 3 -11 6l-10 3q-12 5 -17 11q-5 5 -5 14q0 13 9 20q12 7 25 7q10 0 26 -4q-4 -17 -5 -23l-4 -1l-6 18q-6 2 -11 2q-10 0 -15 -4zM974 239v-4q-15 -9 -29 -9
q-11 0 -15 6q-5 7 -5 16q0 32 1 58l-13 3l-1 4l15 1l6 23q4 1 10 3l1 -1v-21v-4h28v-9h-28q-1 -21 -1 -51q0 -10 3 -13q3 -4 11 -4q3 0 17 2zM1071 235h7v-4l-9 -3l-8 -2q-10 0 -13 11q-16 -11 -28 -11q-18 0 -28 12q-10 13 -10 31q0 23 13 36q15 12 39 12q8 0 13 -1v40
l-13 4v3q6 1 17 4t13 3l1 -1v-43v-51v-26v-7q0 -3 2 -5zM1047 242v65q-4 2 -14 2q-15 0 -24 -9q-8 -10 -8 -27q0 -18 7 -26q7 -10 21 -10q8 0 18 5zM1108 248q4 0 9 -3q3 -3 3 -8t-3 -8q-5 -3 -9 -3q-5 0 -8 3t-3 8t3 8t8 3zM1189 310q-15 0 -22 -10q-8 -10 -8 -26
q0 -19 9 -28t28 -9q5 0 19 2l1 -4q-10 -5 -15 -6q-9 -3 -17 -3q-20 0 -32 12t-12 31q0 22 13 35q16 14 35 14q14 0 27 -6q-4 -15 -5 -26h-4l-8 22q-6 2 -9 2zM1268 226q-20 0 -31 12q-12 14 -12 33q0 21 12 34q13 13 33 13t32 -12t12 -32t-13 -35q-13 -13 -33 -13zM1250 301
q-6 -9 -6 -28q0 -17 6 -29q8 -11 20 -11q11 0 18 10q6 11 6 29t-6 28q-7 10 -20 10q-12 0 -18 -9zM1426 228q-8 1 -21 1t-20 -1v4l8 3q3 0 3 3v6v41q0 12 -5 16q-5 5 -15 5q-9 0 -19 -5v-41v-22q0 -3 2 -3l10 -3v-4q-7 1 -20 1q-14 0 -22 -1l-1 4l11 3q3 1 3 3v12v32
q0 16 -1 23l-12 3l-1 3q20 4 30 7l1 -1v-11q15 12 29 12q16 0 24 -13q16 13 33 13q12 0 20 -8q7 -7 7 -21v-33q0 -14 1 -17q0 -2 2 -4l11 -3v-4q-9 1 -22 1t-20 -1l-1 4l9 3q3 0 3 3v6v41q0 11 -5 16q-7 5 -16 5q-12 0 -20 -7q2 -6 2 -10v-33v-18q0 -3 2 -3l10 -3v-4z
M249 129l-6 -33l-4 -1l-6 26h-33v-94v-18l3 -3l14 -4v-4q-5 0 -13.5 0.5t-12.5 0.5q-3 0 -11.5 -0.5t-13.5 -0.5l-1 4l14 4q3 2 3 3v18v94h-33l-9 -25l-3 -1l-3 34l1 1q15 -1 44 -1h25q29 0 44 1zM253 74q12 13 33 13q19 0 31 -12t12 -31q0 -22 -13 -35q-12 -13 -32 -13
t-32 12q-12 13 -12 33t13 33zM303 70q-6 10 -19 10q-12 0 -18 -9t-6 -28q0 -17 6 -29q6 -11 19 -11t19 10q6 9 6 29q0 18 -7 28zM457 69q13 -1 23 -11q7 -7 7 -21q0 -19 -13 -29t-38 -10h-10h-13h-23l-1 4l12 4q2 0 2 3q1 2 1 8v10v76v9q0 5 -1 7q0 2 -2 3l-11 4l-1 4
q8 -1 24 -1q1 0 6 0.5t8 0.5h13q22 0 32 -7q10 -9 10 -22q0 -23 -25 -32zM422 122v-51h12q14 0 21 7t7 19q0 14 -8 19q-6 6 -20 6h-6h-6zM459 13q8 8 8 22t-8 22q-8 7 -27 7h-10v-57q2 -1 6 -1q3 -1 7 -1q14 0 24 8zM592 5q1 0 3 -0.5t4 -0.5l1 -3q-2 -1 -5.5 -2t-4.5 -1
q-4 -2 -8 -2q-10 0 -13 11q-14 -11 -29 -11t-22 7t-7 21v20q0 24 -1 30l-12 4l-1 3q19 4 31 7l1 -1q-1 -7 -1 -28v-30q0 -10 5 -17q7 -5 15 -5q10 0 20 5v40v22l-12 4l-1 3q20 4 30 7l1 -1v-29v-41q0 -5 1 -7q0 -2 1 -3q2 -2 4 -2zM680 85h16v-4l-8 -2q-4 -2 -5 -4
q0 -1 -3 -7t-4 -10q-18 -46 -19 -48q-2 -4 -4.5 -12.5t-3.5 -12.5q-5 -21 -5 -23q-1 -3 -3 -7q-2 -2 -13 -2h-18l-1 4q10 1 16 6q7 9 18 35l1 2h-1q-6 15 -16.5 40t-14.5 35q-1 2 -5 4l-8 2v4h21h20v-4l-11 -2q2 -4 4.5 -11.5l3.5 -10.5t4.5 -11.5t5.5 -13.5q2 -6 5 -12
q1 3 5 14q2 3 5 11t4 11q2 4 8 23l-10 2l-1 4h17zM793 129q29 0 44 1l1 -1l-6 -29l-3 -1l-6 22h-43v-54h9q13 0 21 1q2 0 4 2l3 13h5v-20v-19h-5l-4 13q0 2 -2 2q-5 0 -12 0.5t-10 0.5h-9v-33v-18q0 -1 2 -3l13 -4v-4h-24h-24v4l12 4q2 0 2 3v18v76v9v7q0 1 -2 3l-12 4v4
q8 -1 23 -1h23zM936 5q1 0 3 -0.5t4 -0.5v-3q-6 -2 -10 -3q-3 -2 -7 -2q-10 0 -13 11q-16 -11 -29 -11q-15 0 -22 7q-8 8 -8 21v20v30l-12 4l-1 3q19 4 31 7v-1v-28v-30q0 -10 5 -17q7 -5 15 -5t20 5v40v22l-13 4v3q20 4 30 7l1 -1v-29v-41v-7l1 -1q1 -1 1 -2q2 -2 4 -2z
M986 5l10 -3l1 -4q-5 0 -12 0.5t-10 0.5t-10.5 -0.5t-11.5 -0.5v4l10 3q3 1 3 3v24v38v56l-13 4l-1 3q20 3 31 7l1 -1q0 -4 -0.5 -18t-0.5 -25v-61q0 -20 1 -26q0 -2 2 -4zM1040 5l10 -3l1 -4q-5 0 -12 0.5t-10 0.5t-10.5 -0.5t-11.5 -0.5v4l10 3l3 3v24v38q0 42 -1 56
l-12 4l-1 3q22 4 31 7l1 -1q-1 -10 -1 -43v-61v-26q2 -3 3 -4zM1233 126l-10 -3q-4 -2 -5 -4l-4 -8l-47 -113h-9l-42 113l-4 8q-2 2 -6 4l-9 3v4q6 -1 22 -1q17 0 26 1v-4l-8 -3l-3 -1q-1 -1 -1 -3q0 -3 1 -5t3 -8l30 -84l33 84q2 6 3 8t1 5q0 2 -1 3t-2 1l-9 2v5
q6 -1 20 -1t20 1zM1264 87q17 0 26 -9q9 -10 9 -28v-5h-59q0 -20 9 -29q11 -9 30 -9q5 0 19 2l1 -4q-13 -6 -17 -7q-10 -2 -15 -2q-21 0 -34 12q-12 10 -12 32q0 20 12 34q12 13 31 13zM1280 53v3q0 14 -4 19q-5 5 -12 5q-12 0 -17 -8q-5 -7 -7 -19h40zM1342 76q15 11 34 11
q-4 -17 -5 -29l-4 -1q-1 3 -3 7.5t-2 5.5q-3 5 -8 5q-4 0 -12 -5v-40v-21q0 -3 2 -3l13 -4v-4h-24h-22v4l11 3q2 2 2 3v12v32v22l-13 4v3l30 6h1v-11zM1425 49q10 -3 19 -10q6 -6 6 -15q0 -14 -10 -21t-25 -7t-30 6q2 5 3.5 13t2.5 10l3 1l7 -20q4 -2 14 -2q8 0 14 3
q5 5 5 10q0 7 -4 10q-3 3 -11 6l-10 3q-13 5 -17 10q-5 7 -5 15q0 13 9 19q8 7 25 7q15 0 26 -4q-4 -14 -5 -22l-4 -1l-6 18q-3 1 -11 1q-9 0 -15 -3q-5 -3 -5 -9t4 -9q5 -5 13 -7zM1472 120q0 5 3 8t8 3t8 -3t3 -7q0 -5 -3 -8q-4 -4 -8 -4q-5 0 -8 3t-3 8zM1495 5l11 -3v-4
q-4 0 -11.5 0.5t-10.5 0.5t-10 -0.5t-12 -0.5v4l11 3q2 2 2 3v12v32v22l-13 4v3q20 4 30 7l1 -1v-27v-36v-15q0 -2 2 -4zM1564 87q19 0 31 -12t12 -31q0 -22 -13 -35q-12 -13 -33 -13q-19 0 -31 12q-12 13 -12 33q0 21 13 33q12 13 33 13zM1582 13q6 9 6 29q0 18 -7 28
q-6 10 -19 10q-12 0 -18 -9q-7 -11 -7 -28q0 -15 7 -29q6 -11 19 -11q12 0 19 10zM1651 76q15 11 30 11q14 0 21 -7t7 -21v-33q0 -5 0.5 -10.5t0.5 -6.5q0 -2 2 -4l10 -3l1 -4q-5 0 -12 0.5t-10 0.5t-9.5 -0.5t-10.5 -0.5l-1 4l10 3q2 0 2 3v6v40q0 12 -5 17q-7 5 -17 5
q-9 0 -19 -5v-41v-22q0 -3 2 -3l10 -3v-4h-21h-22v4l11 3q2 2 2 3v12v32v22l-13 4v3l30 6h1v-11zM50 961h1756v-1109h-1756v1109zM1797 -139v1092h-1739v-1092h1739z" />
    <glyph glyph-name="parenright" unicode=")" horiz-adv-x="1856" 
d="M135 714v11v79v9v7q0 3 -2 3l-12 4l-1 4h25h15h14q23 0 35 -9t12 -26q0 -21 -14 -33q-12 -11 -38 -11h-15v-27v-11v-8q2 -3 3 -3l13 -4l1 -4h-26h-24l-1 4l12 3q3 2 3 3v9zM154 823v-62q10 -2 14 -2q15 0 23 8t8 25q0 16 -7 24q-7 7 -25 7h-13zM276 692q-22 0 -34 12
q-14 14 -14 34t13 36q12 13 33 13q17 0 26 -10q10 -10 10 -28v-6h-62q0 -20 10 -30q10 -9 31 -9q6 0 20 2v-4q-5 -4 -17 -8q-10 -2 -16 -2zM256 771q-7 -9 -7 -20h41v3q0 15 -4 20q-5 6 -13 6q-11 0 -17 -9zM336 705v12v33q0 18 -1 24l-13 3v3q11 3 31 7h1v-12q18 12 35 12
h1l-6 -30l-4 -1q-1 2 -1.5 4t-1 3.5l-1 3t-1.5 2.5q-3 5 -8 5q-7 0 -13 -5v-42v-21q0 -2 2 -4l13 -3l1 -4h-25h-23v4l11 3q3 0 3 3zM430 700q8 0 14 4t6 11q0 5 -4 9t-12 7l-10 3q-14 5 -18 11q-5 7 -5 15q0 13 10 20q8 7 25 7q16 0 27 -4q-1 -4 -2.5 -11.5t-2.5 -11.5
l-4 -1l-6 18q-8 2 -12 2q-10 0 -15 -4q-5 -3 -5 -9t3 -10q5 -4 14 -6l8 -3q10 -3 19 -10q7 -6 7 -16q0 -13 -11 -21t-26 -8q-14 0 -31 6q2 5 4 14.5t2 10.5h4l7 -20q4 -3 14 -3zM526 692q-20 0 -33 13q-12 13 -12 34q0 22 13 35t34 13t33 -12q12 -13 12 -33q0 -23 -13 -36
q-14 -14 -34 -14zM507 770q-6 -9 -6 -29q0 -19 7 -30q6 -11 20 -11q12 0 19 10q6 10 6 30q0 19 -7 29q-6 11 -19 11q-12 0 -20 -10zM600 705v12v33v24l-13 3v3q4 1 30 7h1v-12q18 12 32 12t22 -7q7 -8 7 -22v-35q0 -5 0.5 -11t0.5 -7q0 -3 2 -3l11 -3v-4h-22h-22v4l10 2
q2 2 2 3v7v42q0 12 -5 17t-17 5q-9 0 -21 -5v-43q0 -4 0.5 -11.5t0.5 -10.5t2 -3l10 -3v-4h-21h-23v4l11 3q2 0 2 3zM732 692q-15 0 -22 7q-8 5 -8 19q0 15 13 22q16 7 42 7v7q0 11 -6 17q-5 5 -17 5q-10 0 -22 -4l-2 7q16 8 33 8q16 0 24 -7q9 -9 8 -23v-40v-8q0 -3 2 -5
t4 -2q2 -1 8 -1v-4q-2 -1 -10 -3l-8 -2q-10 0 -13 10q-13 -10 -26 -10zM729 735q-6 -4 -8 -14q0 -10 5 -13q5 -4 14 -4q10 0 17 3v32q-21 0 -28 -4zM811 827l-13 4v4q22 4 31 6h1v-44v-64v-28q0 -3 3 -3l10 -3v-4h-22h-23v4l11 3q2 0 2 3t0.5 11t0.5 13v40q0 13 -0.5 32.5
t-0.5 25.5zM917 823l-12 4v4h24h24v-4l-12 -4q-2 0 -2 -3q0 -1 -0.5 -3.5t-0.5 -3.5v-9v-53q0 -29 9 -39q9 -11 29 -11t29 12q9 11 9 37v54v9q-1 2 -1 7q0 3 -2 3l-12 4v4h21h21v-4l-12 -4q-2 0 -2 -3v-7v-9v-50q0 -31 -13 -47t-41 -16q-27 0 -41 14q-13 15 -13 43v56v9v7
q0 3 -2 3zM1080 700q8 0 14 4t6 11q0 5 -4 9q-3 4 -12 7l-10 3q-14 5 -18 11q-5 7 -5 15q0 13 10 20q8 7 25 7q16 0 27 -4q-1 -4 -2.5 -11.5t-2.5 -11.5l-4 -1l-6 18q-8 2 -12 2q-10 0 -15 -4q-5 -3 -5 -9t3 -10q5 -4 14 -6l8 -3q8 -3 20 -10q6 -6 6 -16q0 -13 -11 -21
t-26 -8t-30 6q1 4 2.5 12.5t2.5 12.5h4l7 -20q4 -3 14 -3zM1179 692q-22 0 -35 12q-13 13 -13 34t12 36q12 13 33 13q18 0 27 -10q10 -12 10 -28q0 -1 -0.5 -3t-0.5 -3h-61q0 -21 10 -30q9 -9 30 -9q6 0 20 2l1 -4q-7 -5 -17 -8q-12 -2 -16 -2zM1158 771q-5 -7 -7 -20h42v3
q0 13 -5 20q-4 6 -13 6q-11 0 -17 -9zM1342 691q-32 0 -51 19q-17 20 -17 51q0 35 19 54t53 19q33 0 51 -18q17 -19 17 -50q0 -35 -19 -54q-18 -21 -53 -21zM1306 811q-11 -16 -11 -46q0 -33 13 -49q12 -17 37 -17t36 15q12 16 12 49q0 31 -12 47q-13 16 -38 16t-37 -15z
M1443 705q1 6 0 12v33v24l-13 3v3q11 3 31 7v-12q18 12 32 12t22 -7q8 -10 8 -22v-35v-18q0 -3 2 -3l11 -3v-4h-22h-21l-1 4l10 2q2 2 2 3v2q1 3 1 5v42q0 12 -6 17q-5 5 -17 5q-8 0 -20 -5v-43v-22q0 -3 2 -3l10 -3v-4h-21h-23v4l11 3q2 0 2 3zM1559 827l-14 4v4q22 4 32 6
h1q-1 -11 -1 -44v-64v-28q0 -3 3 -3l11 -3v-4h-23h-22l-1 4l11 3q3 0 3 3v24v40v58zM1599 778l-8 3v4h21h21l1 -4l-12 -3q1 -3 4 -10.5l5 -12.5q6 -16 10 -25q0 -2 1.5 -6t2.5 -7l6 15q2 4 5 11.5t4 10.5q4 10 9 24l-11 3v4h16h17l1 -4l-9 -2q-4 -2 -5 -4t-3.5 -8.5
t-3.5 -10.5q-16 -35 -20 -49q-6 -18 -8 -27q-3 -15 -6 -23q0 -5 -3 -7q-3 -3 -13 -3q-13 0 -19 1l-1 4q11 1 16 6q6 6 20 36v2h-1q-7 18 -19 47t-13 31q-2 4 -5 4zM1724 692q-4 0 -9 3q-3 5 -3 9q0 5 3 8q5 3 9 3q5 0 8 -3q4 -4 4 -8q0 -3 -4 -9q-3 -3 -8 -3zM1727 734
l-6 -1l-8 93l22 1h1zM808 590h20h20v-4l-9 -3q-4 -2 -5 -3q-4 -7 -4 -9l-47 -112l-10 -1l-41 113q-4 8 -5 9q-3 3 -5 3l-9 3v4h22h26v-4l-9 -3q-2 0 -2 -1q-1 -1 -1 -3t1 -5q0 -1 1 -3.5t2 -4.5l30 -84l33 84l3 9q1 2 1 5q0 2 -1 2q0 1 -3 1l-8 3v4zM869 570q-4 0 -7 3t-3 7
q0 5 3 8t8 3q4 0 8 -2q3 -3 3 -8q0 -4 -4 -8q-3 -3 -8 -3zM862 469v12v31v23l-13 3v3q6 1 17 4t13 3l1 -1v-27v-36v-15q0 -3 2 -3l11 -4v-3h-22h-22v3l11 4q2 0 2 3zM959 464q-11 -8 -26 -8q-14 0 -29 6q4 16 5 24h4l7 -20q6 -2 13 -2q10 0 14 4q6 3 6 10q0 5 -4 9
q-3 4 -11 6l-10 4q-12 3 -17 10q-5 5 -5 14q0 13 9 20q11 7 25 7q10 0 26 -4q-4 -13 -5 -23l-4 -1l-6 18q-6 2 -12 2q-9 0 -14 -4q-5 -3 -5 -9t3 -9q5 -3 13 -6l8 -3q14 -5 19 -10q6 -6 6 -15q0 -13 -10 -20zM1009 573q-3 -3 -8 -3q-4 0 -7 3t-3 7q0 5 3 8t8 3q4 0 8 -2
q2 -2 2 -8q0 -5 -3 -8zM994 469v12v31v23l-13 3v3q6 1 17 4t13 3l1 -1v-27v-36v-15q0 -3 2 -3l11 -4v-3h-22h-22v3l11 4q2 0 2 3zM1033 539l-1 4l15 1l6 23q4 1 10 3l1 -1v-21v-4h28v-9h-28q-1 -21 -1 -51q0 -10 3 -13q3 -4 11 -4q3 0 17 2v-4q-13 -8 -28 -8q-12 0 -16 5
q-5 7 -5 17q0 31 1 57zM358 236l11 -3v-5q-8 1 -19 1t-20 -1v4l12 4q2 0 2 3v18v76v16q0 3 -2 3l-12 4v4q4 0 11 -0.5t8 -0.5t4 0.5t5 0.5l78 -98v72v15q0 3 -2 3l-11 4v4q4 0 10.5 -0.5t8.5 -0.5t8.5 0.5t10.5 0.5v-4l-11 -4q-2 0 -3 -3v-16v-104l-8 -1l-84 105v-76v-18
q0 -3 3 -3zM497 226q-14 0 -21 7q-8 5 -8 18q0 14 13 21q14 7 40 7v7q0 9 -5 16q-7 5 -17 5t-21 -4l-2 7q19 8 32 8t23 -8q8 -8 8 -21l-1 -39q0 -6 1 -8q0 -4 1 -5q0 -1 2 -1t2 -1h8v-4q-6 -2 -10 -3l-8 -2q-9 0 -12 10q-13 -10 -25 -10zM494 267q-7 -4 -7 -13q0 -10 5 -13
q4 -4 13 -4t16 4v30q-20 0 -27 -4zM591 369v-25v-37q17 11 30 11t21 -8q8 -6 8 -21v-33v-17q0 -2 2 -4l11 -3v-4q-8 1 -22 1q-13 0 -20 -1l-1 4l10 3q2 0 2 3v6v41q0 11 -5 16t-17 5q-10 0 -19 -4v-42v-22q0 -1 2 -3l10 -3v-4q-7 1 -21 1q-13 0 -21 -1l-1 4l11 3q2 2 2 3v23
v39v34v22l-13 4v3q20 4 31 7v-1zM755 235v-4l-9 -3l-8 -2q-10 0 -13 10q-13 -10 -25 -10q-14 0 -21 7q-8 6 -8 18q0 14 13 21q14 7 40 7v7q0 11 -5 16q-7 5 -17 5q-9 0 -21 -4l-2 7q19 8 32 8t23 -8q8 -8 8 -21v-39v-8q0 -3 2 -5l4 -2h7zM724 240v31q-20 0 -27 -4t-7 -13
q0 -10 5 -13q4 -4 13 -4q8 0 16 3zM777 238v12v32v23l-13 3v3q20 4 30 7l1 -1v-11q17 12 34 12v-1q-4 -17 -5 -29h-4q-4 11 -5 12q-3 5 -8 5q-6 0 -12 -5v-40v-21q0 -3 2 -3l13 -4v-4q-10 1 -24 1q-13 0 -22 -1v4l11 3q2 2 2 3zM859 306q-5 -3 -5 -9t4 -9q3 -3 13 -6l7 -3
q14 -5 19 -10q6 -6 6 -15q0 -13 -10 -20q-11 -8 -25 -8q-16 0 -29 6q1 4 2.5 12t2.5 12h3l7 -20q8 -2 14 -2q9 0 14 4q5 3 5 10q0 6 -4 9q-3 3 -11 6l-10 3q-12 5 -17 11q-5 5 -5 14q0 13 9 20q12 7 25 7q10 0 26 -4q-4 -17 -5 -23l-4 -1l-6 18q-6 2 -11 2q-10 0 -15 -4z
M974 239v-4q-15 -9 -29 -9q-11 0 -15 6q-5 7 -5 16q0 32 1 58l-13 3l-1 4l15 1l6 23q4 1 10 3l1 -1v-21v-4h28v-9h-28q-1 -21 -1 -51q0 -10 3 -13q3 -4 11 -4q3 0 17 2zM1071 235h7v-4l-9 -3l-8 -2q-10 0 -13 11q-16 -11 -28 -11q-18 0 -28 12q-10 13 -10 31q0 23 13 36
q15 12 39 12q8 0 13 -1v40l-13 4v3q6 1 17 4t13 3l1 -1v-43v-51v-26v-7q0 -3 2 -5zM1047 242v65q-4 2 -14 2q-15 0 -24 -9q-8 -10 -8 -27q0 -18 7 -26q7 -10 21 -10q8 0 18 5zM1108 248q4 0 9 -3q3 -3 3 -8t-3 -8q-5 -3 -9 -3q-5 0 -8 3t-3 8t3 8t8 3zM1189 310
q-15 0 -22 -10q-8 -10 -8 -26q0 -19 9 -28t28 -9q5 0 19 2l1 -4q-10 -5 -15 -6q-9 -3 -17 -3q-20 0 -32 12t-12 31q0 22 13 35q16 14 35 14q14 0 27 -6q-4 -15 -5 -26h-4l-8 22q-6 2 -9 2zM1268 226q-20 0 -32 12q-11 14 -11 33q0 21 12 34q13 13 33 13t32 -12t12 -32
t-13 -35q-13 -13 -33 -13zM1250 301q-6 -9 -6 -28q0 -17 6 -29q8 -11 20 -11q11 0 18 10q6 11 6 29t-6 28q-7 10 -20 10q-12 0 -18 -9zM1426 228q-8 1 -21 1t-20 -1v4l8 3q3 0 3 3v6v41q0 12 -5 16q-5 5 -15 5q-9 0 -19 -5v-41v-22q0 -3 2 -3l10 -3v-4q-7 1 -20 1
q-14 0 -22 -1l-1 4l11 3q3 1 3 3v12v32q0 16 -1 23l-12 3l-1 3q20 4 30 7l1 -1v-11q15 12 29 12q16 0 24 -13q16 13 33 13q12 0 20 -8q7 -7 7 -21v-33q0 -14 1 -17q0 -2 2 -4l11 -3v-4q-9 1 -22 1t-20 -1l-1 4l9 3q3 0 3 3v6v41q0 11 -5 16q-7 5 -16 5q-12 0 -20 -7
q2 -6 2 -10v-33v-18q0 -3 2 -3l10 -3v-4zM249 129l-6 -33l-4 -1l-6 26h-33v-94v-18l3 -3l14 -4v-4q-5 0 -13.5 0.5t-12.5 0.5q-3 0 -11.5 -0.5t-13.5 -0.5l-1 4l14 4q3 2 3 3v18v94h-33l-9 -25l-3 -1l-3 34l1 1q15 -1 44 -1h25q29 0 44 1zM253 74q12 13 33 13q19 0 31 -12
t12 -31q0 -22 -13 -35q-12 -13 -32 -13t-32 12q-12 13 -12 33t13 33zM303 70q-6 10 -19 10q-12 0 -18 -9t-6 -28q0 -17 6 -29q6 -11 19 -11t19 10q6 9 6 29q0 18 -7 28zM457 69q13 -1 23 -11q7 -7 7 -21q0 -19 -13 -29t-38 -10h-10h-13h-23l-1 4l12 4q2 0 2 3q0 1 0.5 3.5
t0.5 4.5v10v76v9q0 5 -1 7q0 2 -2 3l-11 4l-1 4q8 -1 24 -1q1 0 6 0.5t8 0.5h13q22 0 32 -7q10 -9 10 -22q0 -23 -25 -32zM422 122v-51h12q14 0 21 7t7 19q0 14 -8 19q-6 6 -20 6h-6h-6zM459 13q8 8 8 22t-8 22q-8 7 -27 7h-10v-57q2 -1 6 -1q3 -1 7 -1q14 0 24 8zM592 5
q1 0 3 -0.5t4 -0.5l1 -3q-2 -1 -5.5 -2t-4.5 -1q-4 -2 -8 -2q-10 0 -13 11q-14 -11 -29 -11t-22 7t-7 21v20q0 24 -1 30l-12 4l-1 3q19 4 31 7l1 -1q-1 -7 -1 -28v-30q0 -10 5 -17q7 -5 15 -5q10 0 20 5v40v22l-12 4l-1 3q20 4 30 7l1 -1v-29v-41q0 -5 1 -7q0 -2 1 -3
q2 -2 4 -2zM680 85h16v-4l-8 -2q-4 -2 -5 -4q0 -1 -3 -7t-4 -10q-18 -46 -19 -48q-2 -4 -4.5 -12.5t-3.5 -12.5q-5 -21 -5 -23q-1 -3 -3 -7q-2 -2 -13 -2h-18l-1 4q10 1 16 6q7 9 18 35l1 2h-1q-6 15 -16.5 40t-14.5 35q-1 2 -5 4l-8 2v4h21h20v-4l-11 -2q2 -4 4.5 -11.5
l3.5 -10.5t4.5 -11.5t5.5 -13.5q2 -6 5 -12q1 3 5 14q2 3 5 11t4 11q2 4 8 23l-10 2l-1 4h17zM793 129q29 0 44 1l1 -1l-6 -29l-3 -1l-6 22h-43v-54h9q13 0 21 1q3 0 3 2l4 13h5v-20v-19h-5l-4 13q0 2 -2 2q-5 0 -12.5 0.5t-10.5 0.5h-8v-33v-18q0 -1 2 -3l13 -4v-4h-24h-24
v4l12 4q2 0 2 3v18v76v9v7q0 1 -2 3l-12 4v4q8 -1 23 -1h23zM936 5q1 0 3 -0.5t4 -0.5v-3q-6 -2 -10 -3q-3 -2 -7 -2q-10 0 -13 11q-16 -11 -29 -11q-15 0 -22 7q-8 8 -8 21v20v30l-12 4l-1 3q19 4 31 7v-1v-28v-30q0 -10 5 -17q7 -5 15 -5t20 5v40v22l-13 4v3q20 4 30 7
l1 -1v-29v-41v-7l1 -1q1 -1 1 -2q2 -2 4 -2zM986 5l10 -3l1 -4q-5 0 -12 0.5t-10 0.5t-10.5 -0.5t-11.5 -0.5v4l10 3q3 1 3 3v24v38v56l-13 4l-1 3q20 3 31 7l1 -1q0 -4 -0.5 -18t-0.5 -25v-61q0 -20 1 -26q0 -2 2 -4zM1040 5l10 -3l1 -4q-5 0 -12 0.5t-10 0.5t-10.5 -0.5
t-11.5 -0.5v4l10 3l3 3v24v38q0 42 -1 56l-12 4l-1 3q22 4 31 7l1 -1q-1 -10 -1 -43v-61v-26q2 -3 3 -4zM1233 126l-10 -3q-4 -2 -5 -4l-4 -8l-47 -113h-9l-42 113l-4 8q-2 2 -6 4l-9 3v4q6 -1 22 -1q17 0 26 1v-4l-8 -3l-3 -1q-1 -1 -1 -3q0 -3 1 -5t3 -8l30 -84l33 84
q2 6 3 8t1 5q0 2 -1 3t-2 1l-9 2v5q6 -1 20 -1t20 1zM1264 87q17 0 26 -9q9 -10 9 -28v-5h-59q0 -20 9 -29q9 -8 30 -8q12 0 19 1l1 -4q-10 -6 -17 -7q-10 -2 -15 -2q-21 0 -34 12q-12 10 -12 32q0 20 12 34q12 13 31 13zM1240 53h40v3q0 14 -4 19q-5 5 -12 5q-12 0 -17 -8
q-5 -7 -7 -19zM1342 76q15 11 34 11q-4 -17 -5 -29l-4 -1q-1 3 -3 7.5t-2 5.5q-3 5 -8 5q-4 0 -12 -5v-40v-21q0 -3 2 -3l13 -4v-4h-24h-22v4l11 3q2 2 2 3v12v32v22l-13 4v3l30 6h1v-11zM1425 49q10 -3 19 -10q6 -6 6 -15q0 -14 -10 -21t-25 -7t-30 6q2 5 3.5 13t2.5 10
l3 1l7 -20q4 -2 14 -2q9 0 13 3q6 4 6 10q0 7 -4 10q-3 3 -11 6l-10 3q-13 5 -17 10q-5 7 -5 15q0 13 9 19q8 7 25 7q15 0 26 -4q-4 -14 -5 -22l-4 -1l-6 18q-3 1 -11 1q-9 0 -15 -3q-5 -3 -5 -9t4 -9q5 -5 13 -7zM1472 120q0 5 3 8t8 3t8 -3t3 -7q0 -5 -3 -8q-4 -4 -8 -4
q-5 0 -8 3t-3 8zM1495 5l11 -3v-4q-4 0 -11.5 0.5t-10.5 0.5t-10 -0.5t-12 -0.5v4l11 3q2 2 2 3v12v32v22l-13 4v3q20 4 30 7l1 -1v-27v-36v-15q0 -2 2 -4zM1564 87q19 0 31 -12t12 -31q0 -22 -13 -35q-12 -13 -33 -13q-19 0 -31 12q-12 13 -12 33q0 21 13 33q12 13 33 13z
M1582 13q6 9 6 29q0 18 -7 28q-6 10 -19 10q-12 0 -18 -9q-7 -11 -7 -28q0 -15 7 -29q6 -11 19 -11q12 0 19 10zM1651 76q15 11 30 11q14 0 21 -7t7 -21v-33q0 -5 0.5 -10.5t0.5 -6.5q0 -2 2 -4l10 -3l1 -4q-5 0 -12 0.5t-10 0.5t-9.5 -0.5t-10.5 -0.5l-1 4l10 3q2 0 2 3v6
v40q0 12 -5 17q-7 5 -17 5q-9 0 -19 -5v-41v-22q0 -3 2 -3l10 -3v-4h-21h-22v4l11 3q2 2 2 3v12v32v22l-13 4v3l30 6h1v-11zM50 961h1756v-1109h-1756v1109zM1797 -139v1092h-1739v-1092h1739z" />
    <glyph glyph-name="asterisk" unicode="*" horiz-adv-x="520" 
d="M470 741l-16 -112l-134 16l73 -110l-108 -57l-37 128l-77 -128l-88 60l98 107l-131 -17l16 112l131 -17l-71 113l105 55l38 -127l73 127l93 -57l-100 -110z" />
    <glyph glyph-name="plus" unicode="+" horiz-adv-x="684" 
d="M401 326h233l-14 -99h-233l-35 -245h-103l35 245h-234l14 99h234l34 243h103z" />
    <glyph glyph-name="comma" unicode="," horiz-adv-x="237" 
d="M179 67q12 -17 5 -44q-11 -44 -43.5 -70t-55.5 -30h-6q-14 0 -21 11l-8 12l8 14q14 20 17 35t2 42q0 21 17 36q21 19 49 15q25 -3 36 -21z" />
    <glyph glyph-name="hyphen" unicode="-" horiz-adv-x="318" 
d="M61 213h207l-11 -79h-207z" />
    <glyph glyph-name="period" unicode="." horiz-adv-x="271" 
d="M159.5 69q16.5 -19 13.5 -45q-4 -24 -23 -41t-44 -17q-26 0 -42.5 19t-12.5 45q3 25 22.5 41.5t43.5 16.5q26 0 42.5 -19z" />
    <glyph glyph-name="slash" unicode="/" horiz-adv-x="606" 
d="M550 781q12 -20 0 -41l-413 -784q-13 -24 -40 -24h-7q-23 0 -34 19q-12 19 -1 41l413 783q13 25 40 25h8q23 0 34 -19z" />
    <glyph glyph-name="zero" unicode="0" horiz-adv-x="733" 
d="M462 846q61 0 110 -33.5t75.5 -91t34 -134.5t-13.5 -164q-26 -115 -88 -212.5t-144.5 -154t-164.5 -56.5q-61 0 -109.5 33t-75.5 90.5t-34.5 134.5t13.5 165q26 115 88.5 212.5t144.5 154t164 56.5zM551 423q36 152 14.5 257.5t-95.5 108.5q-50 2 -108.5 -46.5t-108 -135
t-71.5 -184.5q-21 -104 -17 -185t35.5 -131.5t83.5 -50.5q78 0 155.5 107t111.5 260z" />
    <glyph glyph-name="one" unicode="1" horiz-adv-x="485" 
d="M252 846h183q-4 -2 -10.5 -5.5t-22.5 -23.5t-28 -49q-88 -250 -161 -484t-63 -282q-69 -9 -88 24.5t3 113.5q17 69 160 507q-30 -23 -59.5 -36.5t-60 -17t-55.5 11.5q46 21 84 54t59 64.5t35.5 59.5t18.5 45z" />
    <glyph glyph-name="two" unicode="2" horiz-adv-x="828" 
d="M365 154q111 13 192 4.5t132 -35t73 -63t14 -78.5q-100 39 -229.5 59.5t-267 12.5t-229.5 -52q-1 28 22.5 56.5t62.5 44.5q22 14 45 28.5t57.5 39.5t67 50t70.5 58t70 66t62.5 72.5t52 77t34.5 80t14 82.5q2 136 -77 144q-65 8 -146 -66q-82 -74 -106 -162q-15 -56 3 -98
q-107 0 -117 78q-10 71 61 162q77 99 184 137q52 18 103 16q144 -8 191 -116q46 -106 -19 -255q-75 -168 -253 -298q-33 -24 -67 -45z" />
    <glyph glyph-name="three" unicode="3" horiz-adv-x="762" 
d="M576 867q43 -16 72.5 -40t44.5 -52.5t18 -61.5t-6 -65.5t-29 -64.5t-48.5 -60t-67.5 -51.5t-83 -38.5q47 -24 73 -64.5t29.5 -86t-11 -93.5t-44.5 -87.5t-77 -67t-101 -32.5q-149 -14 -237 44q-73 49 -56 118q13 57 87 109q-26 -80 50 -136q67 -50 159 -47q99 3 137 69
q7 13 11 27q7 24 3 48t-15.5 46.5t-29.5 42.5t-39.5 36t-44.5 27t-45 16l24 78q34 7 70 21t71.5 35.5t63.5 48t46 61t19 71.5q2 75 -74 89t-170 -33q-95 -48 -124 -121q-12 -33 -8 -64q-95 57 -67 139q22 67 112 114q113 60 233 40q28 -5 54 -14z" />
    <glyph glyph-name="four" unicode="4" horiz-adv-x="775" 
d="M692 846h33q-4 -2 -10.5 -5.5t-22.5 -23.5t-28 -49q-67 -189 -119 -350q9 -1 15 -2q18 -2 32.5 -7t23.5 -11t15.5 -13t9 -13.5t4.5 -11.5t2 -8v-3l-128 -13q-41 -131 -63 -219.5t-16 -114.5q-69 -9 -88 24.5t3 113.5q9 38 56 185l-361 -37l12 80l6 41l477 437h147z
M170 383q165 23 269 31q37 113 102 312z" />
    <glyph glyph-name="five" unicode="5" horiz-adv-x="788" 
d="M282 846q380 9 442 -68q29 -39 -4 -106q-22 36 -120 56.5t-295 11.5q-43 -123 -82 -240q52 30 112 40q62 11 115 -3.5t88 -48t55 -79t17.5 -101t-28.5 -110.5q-51 -109 -181 -163q-119 -50 -225 -26q-101 23 -122 101q-9 38 3 84q32 -50 81 -72t99.5 -16.5t101.5 30
t89.5 61t60 82.5t15.5 90q-6 48 -27.5 78.5t-51.5 41t-66 9t-73.5 -18t-72.5 -40t-64 -56.5t-46 -68q-20 16 -29 34q14 42 37 115t42.5 137.5t39.5 128t29 91.5q4 11 13.5 18t21.5 7h25z" />
    <glyph glyph-name="six" unicode="6" horiz-adv-x="612" 
d="M263 423q56 56 135 42q76 -13 114 -79q55 -97 -18 -234q-4 -7 -7 -13q-22 -37 -62 -68.5t-86.5 -50.5t-96 -20t-90.5 16.5t-69 64.5t-32 119q-6 92 32 207t103 218q45 71 95.5 123.5t101 79.5t98 15.5t81.5 -67.5q-39 45 -144.5 -54t-192 -264t-75.5 -281q5 -52 26 -82
t50.5 -36t63 5t64.5 37q30 25 51 60.5t25.5 75.5t-7.5 77t-53 66.5t-107 42.5z" />
    <glyph glyph-name="seven" unicode="7" horiz-adv-x="608" 
d="M462 841h8.5t20 -2.5t26 -6.5t23 -14t16 -24.5t-0.5 -37.5t-23 -53q-338 -533 -372 -703q-28 0 -46.5 3.5t-33 14t-18.5 28.5t2 49.5t25 74.5q49 114 316 573q-57 -7 -106.5 -16.5t-100 -25t-82 -38.5t-36.5 -51q-1 2 -3.5 5.5t-7.5 14.5t-9 22.5t-7.5 27.5t-3 31
t6.5 31.5t18 30.5q24 28 73.5 45.5t108.5 22t110 3.5t96 -6v1z" />
    <glyph glyph-name="eight" unicode="8" horiz-adv-x="646" 
d="M442 825q68 -4 113 -59t41 -141q-6 -155 -104 -287q70 -89 37 -183q-27 -73 -99.5 -114t-174.5 -41h-1q-83 0 -135.5 34.5t-65.5 97.5q-7 38 2.5 78t30 73t47.5 62.5t53.5 49t49.5 29.5q-36 38 -55 77.5t-20.5 73t4.5 59t18 48.5q33 66 107.5 107t151.5 36zM438 180
q15 42 -10 84q-23 -23 -82 -74q-36 -30 -70 -43.5t-56 0.5l1 12q10 12 36.5 37.5t57.5 58t57 63.5q-51 31 -91 64q-58 -39 -95.5 -98t-28.5 -121q6 -40 38 -80.5t78 -40.5h1q32 0 60.5 14t48.5 35.5t33.5 44t21.5 44.5zM431 398q80 128 67 249q-5 44 -39.5 83.5t-73.5 39.5
q-38 1 -75 -36t-43 -89q-6 -60 30.5 -115.5t133.5 -130.5v-1z" />
    <glyph glyph-name="nine" unicode="9" horiz-adv-x="621" 
d="M569 646q4 -47 -2.5 -103.5t-22 -117.5t-43.5 -122t-64 -115.5t-86.5 -99.5t-109.5 -72q-24 -11 -50.5 -15.5t-54.5 -1.5t-51.5 21t-34.5 50q33 -38 118 7q99 52 183 172q132 187 124 402q0 10 -1 21q-4 51 -27 81.5t-54.5 35.5t-67.5 -6t-68 -38q-30 -25 -50.5 -60.5
t-25.5 -75.5t7.5 -76.5t53.5 -66.5t107 -43q-56 -56 -136 -42q-75 14 -113 80q-56 97 18 234q3 6 7 12q21 38 61.5 68t88 47t98 17t92 -17.5t71 -63t33.5 -112.5z" />
    <glyph glyph-name="colon" unicode=":" horiz-adv-x="271" 
d="M117 88q26 0 42.5 -19t13.5 -45q-4 -24 -23 -41t-44 -17q-26 0 -42.5 19t-12.5 45q3 25 22.5 41.5t43.5 16.5zM207.5 405q16.5 -19 12.5 -46q-3 -24 -22.5 -41t-43.5 -17q-26 0 -43 19.5t-13 45.5q4 24 23 41t44 17q26 0 42.5 -19z" />
    <glyph glyph-name="semicolon" unicode=";" horiz-adv-x="285" 
d="M221.5 405q16.5 -19 12.5 -46q-3 -24 -22.5 -41t-43.5 -17q-27 0 -43.5 19.5t-12.5 45.5q4 24 23 41t44 17q26 0 42.5 -19zM143 88q25 -3 36 -21q12 -17 5 -44q-11 -44 -43.5 -70t-55.5 -30h-6q-14 0 -21 11l-8 12l8 14q14 20 17 35t2 42q0 21 17 36q21 19 49 15z" />
    <glyph glyph-name="equal" unicode="=" horiz-adv-x="713" 
d="M50 128l14 99h570l-14 -99h-570zM93 429h570l-14 -98h-570z" />
    <glyph glyph-name="question" unicode="?" horiz-adv-x="501" 
d="M129 17q31 0 49 -21q19 -22 14 -57q-3 -20 -13.5 -36t-27.5 -25t-37 -9q-30 0 -48 21q-20 22 -15 56q4 31 26 51t52 20zM418 645q42 -48 31 -125q-3 -17 -7.5 -32.5t-10 -28t-16 -27.5t-18 -25.5t-22 -26.5t-23.5 -25t-27 -28l-7 -7q-48 -48 -91.5 -119.5t-46.5 -112.5
q-4 -28 -30 -36q-5 -1 -10 -1q-19 0 -32 16l-5 7l1 19q2 55 39.5 134.5t83.5 127.5q33 33 52.5 57t33.5 49.5t17 50.5q6 40 -13 62q-22 26 -73 27q-46 0 -91 -20q-17 -7 -32 1q-15 7 -19 23q-1 6 -1 13q3 19 20 30q75 49 152 49q99 0 145 -52z" />
    <glyph glyph-name="at" unicode="@" horiz-adv-x="836" 
d="M724 541q78 -90 58 -231q-9 -62 -33 -112.5t-57 -82t-70.5 -49t-75.5 -17.5q-43 0 -67 30q-12 14 -16 34q-62 -64 -144 -64q-51 0 -84 38q-38 43 -27 114q14 105 98 181q87 79 199 79q65 0 112 -22l18 -8l-66 -203q-24 -70 -12 -88q2 -3 9 -3q37 0 73 48.5t47 125.5
q16 111 -39 175q-53 61 -156 61q-128 0 -224.5 -93t-116.5 -235q-17 -122 44 -193q57 -65 163 -65q84 0 148 32l27 13l18 -82l-16 -8q-86 -41 -194 -41q-141 0 -222 93q-86 99 -64 251q12 82 50 156.5t97 131.5q42 40 91 67.5t103 42t110 14.5q141 0 219 -90zM321 153
q9 -11 30 -11q36 0 75 40.5t54 87.5l32 98q-12 2 -26 2q-61 0 -112.5 -51t-60.5 -120q-5 -31 8 -46z" />
    <glyph glyph-name="A" unicode="A" horiz-adv-x="1120" 
d="M1285 881q-4 -1 -10 -4.5t-22 -22t-27 -45.5q-155 -410 -217 -635q73 6 107 15q-2 -3 -6 -17.5t-12 -20.5q-15 -11 -103 -27q-47 -186 -32 -263q-67 0 -84.5 66.5t9.5 180.5q-97 -10 -169 -3q-138 -163 -285 -262.5t-263 -94.5q-29 0 -51 9h-0.5h-1.5v1q-18 7 -29 20
q-35 41 -38 106t22 136.5t75 145t113.5 133t145.5 99t164 44.5q82 3 122 -36.5t20 -100.5q-28 23 -68 26t-82.5 -13t-90 -44t-91 -66t-84.5 -79.5t-71.5 -84.5t-51 -80.5t-23.5 -68t11 -47.5q11 -9 26 -14l1 -0.5t1.5 -0.5h1.5t2 -1q9 -1 20 -1q21 0 46 5q74 19 174.5 94
t203.5 191q-26 10 -42 23q-33 28 -38 58.5t10 52t37.5 34.5t40.5 10q-17 -64 59 -98q18 23 32 42q81 107 173.5 266.5t145.5 265.5l52 106h177zM902 171q39 151 153 461q-120 -238 -248 -415q-12 -17 -27 -36q53 -10 122 -10z" />
    <glyph glyph-name="B" unicode="B" horiz-adv-x="974" 
d="M1084 465l-11 -53q-97 -31 -185 -62q6 -27 7.5 -58t-9.5 -71.5t-30.5 -83t-56.5 -92.5t-86 -100q-141 -140 -336 -182q-150 -32 -246 9q-83 36 -68 109q3 11 7 23q51 124 263 253q17 54 40 129q-38 -17 -71 -30l-11 55q54 27 106 50q56 178 107 336q4 11 13.5 18t21.5 7
h119q-4 -1 -10.5 -4.5t-22.5 -23.5t-28 -49q-40 -116 -77 -226q253 143 307 292q27 76 -66 89q-104 15 -275 -46q-188 -67 -285 -166q-82 -83 -62 -162q-64 6 -83 59t18 127q38 73 111.5 133t159.5 96.5t180 54.5t174.5 14.5t142.5 -31t84 -76.5q11 -29 10.5 -57t-15 -58.5
t-37 -60t-56 -60.5t-71 -60t-82.5 -58q129 15 188 -51l2 -3q108 38 219 70zM495 343q-19 -61 -36 -116q135 68 306 132q-3 5 -4 6q-14 14 -41.5 18.5t-63.5 0t-76 -14.5t-85 -26zM619 14q85 90 123.5 166.5t37.5 129.5q-201 -76 -341 -152q-55 -190 -47 -230
q-68 -9 -87 24.5t2 113.5q1 5 4 14q-124 -87 -168 -171q-28 -56 34 -73q74 -19 201 26q145 52 241 152z" />
    <glyph glyph-name="C" unicode="C" horiz-adv-x="1156" 
d="M975 233q24 0 41.5 -16t23.5 -44t3 -62t-21 -74t-48 -77q-32 -37 -80.5 -73t-110 -64t-125 -41t-130 -2.5t-119.5 49.5q-111 80 -105 252q-51 0 -99 7q-91 12 -131 52t-15 126q42 -25 111 -43t151 -21q7 29 16 57.5t15 41.5l5 14q33 91 80.5 178t107.5 162.5t126 132.5
t141 90t148 33q53 0 95 -20.5t67.5 -55t33.5 -83t-2.5 -102.5t-44.5 -116t-89 -121q-127 -134 -283 -216.5t-316 -106.5q0 -2 -1 -8.5t-2 -9.5q-7 -60 17 -103.5t61 -62.5q31 -16 112 -10q129 9 225 95t142 242zM852 782q-59 -29 -136 -105.5t-151 -196.5
q-81 -134 -120 -275q270 28 476 215q170 154 173 273q3 76 -63 104q-65 28 -153 -7q-11 -3 -12 -3q-3 -1 -14 -5z" />
    <glyph glyph-name="D" unicode="D" horiz-adv-x="1079" 
d="M1189 465l-11 -53q-117 -38 -202 -66q-78 -208 -273 -391q-142 -142 -333 -186q-147 -34 -238 7q-79 35 -60 110q2 9 6 18q46 112 257 232q59 200 177 561q4 11 13.5 18t20.5 7h120q-4 -1 -10.5 -4.5t-23 -23.5t-27.5 -49q-90 -257 -146 -444q165 78 395 158
q40 80 58.5 150.5t9.5 138t-53 112.5q-33 32 -85.5 47.5t-112.5 13.5t-127 -18t-129 -43.5t-117 -65t-93 -79.5t-54.5 -91.5t-3.5 -97.5q-65 7 -88 60t9 127q37 74 102.5 131.5t142 90.5t162 49t164.5 13t147.5 -23t111.5 -55q84 -68 108.5 -177.5t-11.5 -235.5
q93 30 194 59zM610 32q113 103 206 259q-229 -82 -376 -156q-48 -170 -40 -207q-68 -9 -87 24t1 112q-124 -79 -163 -155q-30 -58 31 -68q74 -14 203 42q131 57 225 149z" />
    <glyph glyph-name="E" unicode="E" horiz-adv-x="1066" 
d="M761 891q199 35 272 -61q49 -63 25 -150q-21 -75 -79 -108q-45 -27 -94 -10q32 46 49 83t19 61.5t-5.5 43t-25 27.5t-38 13.5t-45 3.5t-46.5 -4.5t-42 -9.5q-125 -44 -242 -146q-103 -90 -107 -147q-1 -32 32 -43q53 -17 134 -5l-21 -103q-24 -8 -49 -18t-63.5 -29.5
t-72.5 -41.5t-70 -55t-60.5 -69t-38.5 -83.5t-10 -98.5q6 -103 113 -120q114 -19 278 61q176 86 289 230q47 59 75 121q17 -21 19 -47.5t-12 -48.5q-131 -206 -342 -311q-179 -89 -336 -69q-142 18 -194 119q-27 54 -22 124q6 113 93 212.5t235 164.5q-36 15 -53 45
q-15 30 -14 66t20.5 77.5t48.5 82t71.5 80t88.5 71.5t99.5 55.5t105.5 33.5l4 1q2 0 5.5 0.5t5.5 1.5z" />
    <glyph glyph-name="F" unicode="F" horiz-adv-x="758" 
d="M1001 771q30 -6 46 -29.5t8 -52.5q-1 -4 -5 -4q-237 37 -428 30q-2 -5 -5 -11q-65 -190 -132 -397q150 -1 249 13q0 -5 -1 -10q-5 -29 -29 -47t-54 -18h-184q-132 -419 -121 -472q-70 -10 -93 23.5t-3 113.5q12 51 101 335h-161l21 22q40 43 99 42q26 -1 61 -1
q72 228 126 396q-121 -16 -202.5 -54t-117 -95.5t-21.5 -128.5q-43 0 -71.5 26.5t-32.5 70t19 98.5q137 292 931 150z" />
    <glyph glyph-name="G" unicode="G" horiz-adv-x="649" 
d="M743 757q0 -1 -0.5 -1.5l-0.5 -0.5q-115 -329 -164 -479q78 55 196 133l-5 -15l-15 -47q-4 -3 -79.5 -54t-117.5 -81q-29 -88 -49 -156v0q-44 -136 -110.5 -212t-129.5 -89q-39 -8 -68 5t-41 39.5t-7.5 63t27.5 73.5q51 83 252 234v1q1 2 3.5 9t3.5 11l0.5 1.5l0.5 1.5v1
v1q1 4 3.5 11t2.5 10q15 50 29 86q19 57 42 129q-73 -138 -132 -220.5t-111.5 -119.5t-109.5 -39q-16 -1 -32 4.5t-32.5 20.5t-28.5 37.5t-17 60t-1 85t22.5 114.5t51.5 145q33 82 70 144t71 98.5t68 59.5t63 30t56 4.5t46 -11t34 -21.5q56 -50 53 -131q24 51 51 110
q7 21 11 32q5 16 19.5 26.5t31.5 10.5h84h49q-2 -1 -5.5 -2.5t-13.5 -9t-20 -17.5t-23 -29.5t-24 -44.5q0 -2 -1.5 -6.5t-2.5 -5.5zM191 147q63 -73 236 235q45 79 97 183q12 49 15 87.5t-2.5 61t-15.5 35t-24 14.5q-54 7 -119 -66.5t-127 -209.5q-38 -84 -56.5 -159.5
t-17.5 -120t14 -60.5zM248 -185q75 25 148 241v1q5 17 14 47q-157 -125 -203 -215q-9 -20 -8.5 -39.5t14.5 -30.5t35 -4z" />
    <glyph glyph-name="H" unicode="H" horiz-adv-x="958" 
d="M1115 874q-1 0 -2 -1t-5 -3t-8 -5.5t-10 -9.5t-11 -13t-11.5 -18t-11.5 -23q-95 -275 -188.5 -579.5t-84.5 -352.5q-69 -10 -92 23.5t-4 114.5q14 56 121 396q-22 -14 -79.5 -48.5t-116.5 -70.5t-111 -71q-28 -87 -48 -156q-44 -137 -110.5 -213t-129.5 -89q-39 -8 -68 5
t-40.5 39.5t-7.5 63t27 73.5q53 88 252 235q8 24 13 40q0 1 0.5 3t0.5 3q10 34 20 62q64 202 139 430q6 20 8 27q-90 -4 -168.5 -51.5t-132.5 -124.5q-50 -72 -78 -148.5t-25 -146t44 -106.5q-54 -27 -95.5 4.5t-50.5 106.5q-8 93 29.5 191.5t108.5 181.5q78 90 180.5 135
t242.5 45h1h1h94h37q-4 -1 -11 -5t-24 -24.5t-30 -50.5q-4 -12 -12 -34q-80 -227 -148 -438q170 114 306 190q80 251 124 388q4 10 18.5 17.5t27.5 7.5h119zM193 -185q75 25 148 241h-1q9 28 17 55q-130 -101 -185 -183q-43 -65 -23 -100q14 -23 44 -13z" />
    <glyph glyph-name="I" unicode="I" horiz-adv-x="551" 
d="M635 743q-5 -13 -12 -34q-79 -226 -147 -434q71 50 165 112l-19 -62q-111 -74 -166 -113q-23 -71 -42 -135q-1 -2 -2 -5v-2q-1 -1 -1 -2q0 -2 -1 -4t-1.5 -4t-0.5 -4h-1q-43 -136 -109.5 -212t-129.5 -89q-39 -8 -68 5t-41 39.5t-7.5 63t27.5 73.5q51 82 252 234
q10 34 12 40q1 1 1 3l1 4q12 38 19 57q65 205 140 435q2 7 28 87q4 12 14.5 19.5t22.5 7.5h94h37q-4 -1 -11 -5t-24.5 -24.5t-29.5 -50.5zM148 -185q75 25 148 241h-1q6 19 15 48q-157 -125 -203 -215q-9 -20 -8.5 -39.5t14.5 -30.5t35 -4z" />
    <glyph glyph-name="J" unicode="J" horiz-adv-x="595" 
d="M680 743q-4 -12 -12 -34q-79 -225 -147 -434q78 54 176 119l-20 -62q-153 -104 -176 -120q-22 -70 -41 -132l-6 -18q0 -2 -1 -6q-43 -136 -110 -212t-130 -89q-39 -8 -68 5t-41 39.5t-7.5 63t26.5 73.5q52 83 253 234q1 5 14 46q0 1 1 1q0 2 1 4q8 28 10 31q3 13 6 22h1
q66 208 140 435q6 20 8 27q-90 -5 -168.5 -52t-132.5 -124q-50 -72 -78 -149t-25 -146t44 -106q-54 -27 -95.5 4.5t-50.5 106.5q-8 93 29.5 191.5t108.5 181.5q78 90 180.5 135t242.5 45h1h1h94h37q-4 -1 -11 -5t-24 -24.5t-30 -50.5zM193 -185q74 25 148 241h-1l15 48
q-157 -125 -204 -215q-8 -20 -7.5 -39.5t14.5 -30.5t35 -4z" />
    <glyph glyph-name="K" unicode="K" horiz-adv-x="1061" 
d="M1106 823q1 0 3.5 -1.5t9 -6t12.5 -10t13.5 -15.5t12.5 -21.5t8 -28t2 -35.5t-7 -44t-18 -52q-24 -58 -95 -119t-165 -112.5t-190.5 -92.5t-188.5 -71q57 -72 119.5 -131.5t116 -96.5t105 -64.5t91.5 -40.5t71 -21t47 -9l17 -1q-1 -3 -2 -7.5t-7 -16t-14.5 -21.5
t-24.5 -20.5t-36.5 -16t-51.5 -5t-68 9.5q-56 15 -126.5 69t-136.5 126.5t-129 158.5q-12 -38 -21 -71q-31 -105 -47.5 -183t-12.5 -100q-69 -10 -92 23.5t-3 113.5q7 28 42 146q24 76 58 185q-26 42 -47 81l22 85q23 -41 51 -84q60 188 125 386q6 20 8 27
q-90 -5 -168.5 -52t-132.5 -124q-50 -72 -78 -149t-25 -146t44 -106q-54 -27 -95.5 4.5t-50.5 106.5q-8 93 29.5 191.5t108.5 181.5q78 90 180.5 135t242.5 45h1h1h94h37q-4 -1 -11 -5t-24 -24.5t-30 -50.5q-4 -12 -12 -34q-78 -222 -146 -430q104 43 192.5 96.5t146.5 104
t104 102t71.5 94.5t42 76.5t21.5 51.5z" />
    <glyph glyph-name="L" unicode="L" horiz-adv-x="611" 
d="M415 -84q247 28 395 -22q110 -37 103 -102q-2 -14 -9 -28q-82 36 -221.5 53t-285.5 12q-6 -42 -4 -56q-89 -13 -102 48q-157 -16 -241 -58q7 30 41 61.5t67 40.5q67 19 137 32q2 9 3 13q7 28 42 146q76 246 209 653q2 7 8 27q-45 -2 -88.5 -16t-82 -37t-71.5 -54t-59 -69
q-50 -72 -78 -148.5t-25 -146t44 -106.5q-54 -27 -95.5 4.5t-50.5 106.5q-8 93 29.5 191.5t108.5 181.5q78 90 180.5 135t242.5 45h1h1h94h37q-4 -1 -11 -5t-24 -24.5t-30 -50.5q-4 -12 -12 -34q-135 -383 -215 -653q-23 -76 -38 -140z" />
    <glyph glyph-name="M" unicode="M" horiz-adv-x="1209" 
d="M717 19h-1h1zM1299 742q-21 -54 -66 -172q-185 -513 -172 -705q-17 -2 -33.5 -2t-31.5 15.5t-19 45.5q-4 14 -1.5 49.5t6.5 77t16.5 105t30.5 133.5t47.5 163.5t67.5 193.5q-108 -159 -370 -598q-18 -29 -52 -29h-6q-50 0 -30 75q94 348 155 511q-72 -91 -166 -242
t-178.5 -320.5t-103.5 -267.5v-1v-1q-46 -7 -71.5 6t-31.5 45.5t8 85.5q7 28 42 147q76 245 209 652q1 4 2 7.5t2 6.5t2 7t2 6q-45 -2 -88.5 -15.5t-82 -37t-71.5 -54.5t-59 -69q-50 -72 -78 -148.5t-25 -146t44 -106.5q-54 -27 -95.5 4.5t-50.5 107.5q-8 92 29.5 190.5
t108.5 181.5q78 90 180.5 135t242.5 45h1h1h94h37q-4 -1 -11 -5t-24 -24.5t-30 -50.5q-4 -12 -12 -34q-95 -271 -170 -506q70 129 153.5 255.5t149.5 205t91 78.5h49q28 0 34.5 -24t-6.5 -53q-45 -119 -106 -318q121 193 219.5 330t125.5 142h1h1v0h38q30 0 46 -24t5 -53z
" />
    <glyph glyph-name="N" unicode="N" horiz-adv-x="995" 
d="M1085 742q-4 -11 -65 -172q-186 -513 -173 -705q-16 -2 -33 -2t-32 15.5t-18 45.5q-4 14 -2 50t6 77.5t17 105.5t31 134.5t48 164.5t68 195q9 24 25 66q-80 -67 -202.5 -255.5t-222.5 -382.5t-139 -306q-69 -10 -92 23.5t-3 113.5q7 28 42 146q76 246 209 653
q1 5 2.5 9.5t3 9.5t2.5 8q-45 -2 -88.5 -16t-82 -37t-71.5 -54t-59 -69q-50 -72 -78 -148.5t-25 -146t44 -106.5q-54 -27 -95.5 4.5t-50.5 107.5q-8 92 29.5 190.5t108.5 181.5q78 90 180.5 135t242.5 45h1h1h94h37q-4 -1 -11 -5t-24 -24.5t-30 -50.5q-4 -12 -12 -34
q-129 -366 -209 -632q66 129 141 256.5t150 237t140.5 178.5t104.5 70v0h1v0h38q30 0 46 -24t5 -53z" />
    <glyph glyph-name="O" unicode="O" horiz-adv-x="890" 
d="M723 699q54 -48 83 -116.5t32.5 -142t-8 -145.5t-36.5 -140q-39 -104 -88 -181.5t-100 -120t-100.5 -62.5t-99.5 -20q-54 0 -98 34t-68.5 86.5t-35.5 114t-6 119.5q15 159 91.5 283.5t205.5 186.5q28 14 60 10.5t55 -23.5q5 -5 7 -8q-86 -39 -150.5 -100t-99.5 -128
t-53 -139t-15 -137t18.5 -119t42.5 -88q58 -74 158 26q84 85 147 231l15 39q37 100 50.5 195.5t-4.5 175.5t-72 112q-60 37 -124 32t-124.5 -35.5t-113 -82t-90.5 -107t-57.5 -109.5t-12.5 -91q-42 17 -62.5 53.5t-19.5 83t18 97t50.5 99.5t77.5 86q52 44 123.5 71t144 32.5
t142.5 -12.5t117 -60z" />
    <glyph glyph-name="P" unicode="P" horiz-adv-x="901" 
d="M549 797q89 10 169.5 -11.5t134 -71.5t63.5 -127.5t-43 -179.5q-94 -178 -411 -294q-3 -12 -17 -57q-31 -105 -47 -183t-12 -100q-46 -7 -71.5 6t-31.5 45.5t7 85.5q7 28 43 146l2.5 7.5l2.5 7.5q-13 -4 -48.5 -15t-51.5 -16l22 69q39 8 97 24q97 325 116 381q2 7 28 86
q4 12 14.5 20t22.5 8h94h37q-4 -2 -11 -6t-24 -24.5t-30 -50.5q-3 -10 -12 -33q-59 -168 -111 -338q46 18 87 39t84.5 48.5t78 61t61.5 72.5t40.5 86.5t10.5 99.5q-2 39 -28 67.5t-66.5 42.5t-91 18t-101.5 -6q-80 -13 -161 -50t-143.5 -86t-95 -111t-17.5 -120
q-64 7 -83 60t18 126q40 78 120 137.5t169.5 91.5t185.5 44z" />
    <glyph glyph-name="Q" unicode="Q" horiz-adv-x="929" 
d="M703 -82q117 -15 173 -56t28 -98q-105 46 -299 61q-79 -54 -162 -54q-69 0 -120 53q-180 -15 -273 -61q7 30 41 61.5t66 40.5q59 16 118 28q-25 51 -35 113t-5 119q15 159 91.5 283.5t205.5 186.5q28 14 60 10.5t55 -23.5q5 -5 7 -8q-93 -42 -161 -109.5t-101.5 -141
t-47 -151t-6 -144.5t30.5 -118q114 16 218 15q81 100 130 234q37 100 50.5 195.5t-5 175.5t-71.5 112q-61 37 -125 32t-124 -35.5t-113 -82t-91 -107t-57 -109.5t-13 -91q-41 17 -62 53.5t-19.5 83t18 97t50 99.5t77.5 86q70 59 169 86.5t197.5 14t161.5 -69.5
q54 -48 83 -116.5t32.5 -142t-8 -145.5t-36.5 -140q-54 -144 -128 -237z" />
    <glyph glyph-name="R" unicode="R" horiz-adv-x="894" 
d="M487 122q70 -74 146.5 -129.5t134.5 -81.5t106.5 -41.5t73.5 -17.5l26 -2q-1 -3 -2 -7.5t-7 -16t-14.5 -21.5t-24.5 -20.5t-36.5 -16t-51.5 -5t-68 10.5q-69 17 -155.5 90.5t-172.5 180.5q-65 -225 -56 -272q-47 -7 -72 6t-31 45.5t7 85.5q7 28 43 146q14 47 29 95
q-37 53 -67 102l23 86q33 -51 70 -100q48 163 85 275q2 8 28 86q4 12 14.5 20t22.5 8h94h37q-4 -2 -11 -6t-24 -24t-30 -51q-4 -12 -12 -33q-58 -166 -108 -331q373 147 359 400q-2 39 -28 67.5t-66.5 42.5t-91 18t-101.5 -6q-80 -13 -161 -50t-143.5 -86t-95 -111
t-17.5 -120q-64 7 -83 60t18 126q40 78 120 137.5t169.5 91.5t185.5 44q89 10 169.5 -11.5t134 -71.5t63.5 -127.5t-43 -179.5q-91 -171 -386 -285z" />
    <glyph glyph-name="S" unicode="S" horiz-adv-x="691" 
d="M721 800h141q-40 -29 -77 -77q-28 -35 -48 -77t-29.5 -80.5t-13.5 -59.5t-5 -37v-2q-1 0 -2.5 1t-2.5 1q-37 18 -47 62v1q-11 46 8 114q-60 19 -132.5 -4t-124.5 -72.5t-61 -104.5q-8 -52 -1.5 -96.5t23 -76t40 -60.5t49.5 -51.5t51.5 -48.5t45.5 -51.5t31.5 -60.5
t9.5 -75q-2 -48 -34 -85.5t-79 -58.5t-97 -30.5t-93 -6.5q-162 11 -206 90q-20 38 -16 84.5t30 90.5q21 35 54 62q-31 -122 56 -195q66 -56 157 -53q86 2 120 58q10 16 13 35q4 22 -12.5 48t-46.5 53.5t-66 59t-72 70t-64.5 81.5t-42.5 99.5t-7 117.5q3 27 13 57.5t26 60
t35 50.5q68 79 193 108t239 -14q22 44 45 73z" />
    <glyph glyph-name="T" unicode="T" horiz-adv-x="557" 
d="M1001 771q30 -6 46 -29.5t8 -52.5q-1 -4 -5 -4q-237 37 -428 30q-2 -5 -5 -11q-95 -275 -188.5 -579t-83.5 -352q-70 -10 -93 23.5t-3 113.5q12 51 97.5 323t149.5 471q-121 -16 -202.5 -54t-117 -95.5t-21.5 -128.5q-43 0 -71.5 26.5t-32.5 70t19 98.5q137 292 931 150z
" />
    <glyph glyph-name="U" unicode="U" horiz-adv-x="920" 
d="M1049 777q-4 -1 -10 -4.5t-22 -22t-27 -46.5q-95 -275 -188.5 -579t-84.5 -352q-69 -10 -92 23.5t-4 113.5q9 36 57 192q-29 -51 -56.5 -91t-50 -65.5t-45 -42.5t-38.5 -25.5t-34 -12t-29.5 -3t-26.5 2.5q-72 11 -82 129.5t34 304t131 425.5q-45 -12 -86.5 -36t-76 -56
t-62.5 -72q-50 -72 -78 -148.5t-25 -146t44 -106.5q-54 -27 -95.5 4.5t-49.5 107.5q-9 92 28.5 190.5t108.5 181.5q76 87 174 132t231 48l42 3q-89 -239 -141.5 -416.5t-64.5 -287.5t28 -122q37 -12 83.5 32.5t98 137.5t104.5 213.5t110 274.5q18 56 31 94q3 11 17.5 18
t27.5 7h119z" />
    <glyph glyph-name="V" unicode="V" horiz-adv-x="937" 
d="M943 809q38 -6 59.5 -38t12.5 -69q-88 -351 -233.5 -573t-388.5 -356q-69 -10 -92 23.5t-3 113.5q7 28 42 146q76 246 209 653q4 13 8 27q-90 -4 -168.5 -51.5t-132.5 -124.5q-50 -72 -78 -148.5t-25 -146t44 -106.5q-54 -27 -95.5 4.5t-50.5 106.5q-4 47 4 97t26.5 97.5
t46 92.5t61.5 86q75 85 171 130t225 50h1h122h37q-2 0 -4.5 -1.5t-10.5 -7t-15.5 -14t-17 -23.5t-17.5 -34q-4 -12 -12 -34q-135 -383 -215 -653q-33 -111 -49 -191q201 118 341.5 365.5t197.5 578.5z" />
    <glyph glyph-name="W" unicode="W" horiz-adv-x="1165" 
d="M1211 819q19 -1 32 -10t18 -21t7 -23.5t1 -19.5v-8q-28 -105 -108.5 -262.5t-168.5 -293t-169 -233.5t-111 -98h-50q-28 0 -34 24t6 53q46 120 106 318q-122 -196 -221.5 -334t-125.5 -138q-46 -7 -71.5 6t-31.5 45.5t8 85.5q7 28 42 146q76 246 209 653q1 6 4.5 16
t3.5 11q-60 -3 -116.5 -26t-103 -61t-81.5 -89q-50 -72 -78 -148.5t-25 -146t44 -106.5q-54 -27 -95.5 4.5t-50.5 106.5q-8 93 29.5 191.5t108.5 181.5q78 90 180.5 135t242.5 45h1.5h0.5h94h37q-4 -1 -11 -5t-24 -24.5t-30 -50.5q-4 -12 -12 -34q-135 -383 -215 -653
q-32 -107 -48 -186q86 107 425 674q17 29 52 29h5q50 0 30 -75q-94 -347 -154 -511q71 92 165.5 243t179 321.5t103.5 267.5z" />
    <glyph glyph-name="X" unicode="X" horiz-adv-x="641" 
d="M917 821q-6 -1 -16.5 -5.5t-42.5 -29t-65 -59.5q-164 -211 -393 -519v-1q29 -142 77 -228v-1q20 -34 37 -49q27 -32 54 -48q-42 -24 -102 -16q-27 4 -55.5 31.5t-55.5 74.5t-50 108q-42 -58 -67 -92v-1q-47 -65 -83.5 -128t-42.5 -85q-126 19 7 210q3 5 5 7
q26 38 147 201v1q-22 90 -30 184t3 196.5t44 190.5q4 10 11 18t16.5 12t20.5 4h111q-89 -194 -66 -459q219 290 342 447q8 11 19.5 19t23.5 12.5t23 4.5h128z" />
    <glyph glyph-name="Y" unicode="Y" horiz-adv-x="959" 
d="M1053 757v-1.5v-0.5q-114 -324 -165 -479q77 54 196 133l-5 -15l-14 -47q-19 -13 -57.5 -39t-73.5 -49.5t-67 -45.5q-24 -75 -42 -133l-0.5 -1.5t-0.5 -2.5q-2 -7 -6 -20q-43 -136 -109.5 -212t-129.5 -89q-40 -8 -69 5t-40.5 39.5t-7.5 63t27 73.5q51 83 253 234v1
q4 12 4 13v1l1 1l2 8q1 4 2 7.5t2.5 8l2.5 7.5q14 50 28 86l1 1q1 5 5 17l6 18q-102 -168 -183.5 -227.5t-155.5 -39.5q-69 19 -79 110t30.5 229t125.5 323q-83 -10 -155.5 -56t-122.5 -118t-78 -149t-25 -146t44 -106q-54 -27 -95.5 4.5t-50.5 106.5q-8 93 29.5 191.5
t108.5 181.5q78 90 180.5 135t242.5 45q6 1 10 1l74 4q-67 -140 -112.5 -252.5t-70.5 -197.5t-24 -136t28 -64q88 -40 225 198q69 120 204 418q9 27 13 41q4 10 11.5 18.5t18 13.5t21.5 5h85h-1h49l-5 -2.5t-13.5 -9t-20.5 -17.5t-22.5 -29.5t-23.5 -44.5q-1 -1 -1.5 -3
t-1 -3t-1 -3t-1.5 -3zM559 -185q74 25 147 241v0q6 19 15 48q-158 -125 -204 -215q-8 -20 -7.5 -39.5t14 -30.5t35.5 -4z" />
    <glyph glyph-name="Z" unicode="Z" horiz-adv-x="904" 
d="M636 447q-104 -155 -309 -417l-82 -105l128 -1q58 0 175 6q52 3 95.5 19t72 40.5t45 45t27.5 41.5q32 -52 14 -120q-17 -64 -76.5 -99.5t-150.5 -35.5h-525q88 128 225 322q146 209 358 485l80 104l-127 1q-58 0 -175 -6q-81 -4 -143.5 -42t-96.5 -104q-32 53 -14 120
q17 65 76.5 100.5t150.5 35.5h525l-55 -82q-34 -50 -104 -147q-77 -106 -114 -161z" />
    <glyph glyph-name="bracketleft" unicode="[" horiz-adv-x="456" 
d="M396.5 868.5q11.5 -13.5 9.5 -31.5q-2 -10 -8 -18.5t-15.5 -13.5t-20.5 -5h-96l-112 -789h90q18 0 29.5 -13t8.5 -31q-2 -16 -14.5 -27t-28.5 -11h-150q-18 0 -29.5 13t-9.5 31l124 871q2 16 14.5 27t28.5 11h150q18 0 29.5 -13.5z" />
    <glyph glyph-name="backslash" unicode="\" horiz-adv-x="374" 
d="M323 -9q5 -21 -10 -40t-39 -19q-15 0 -26.5 9t-15.5 24l-181 775q-5 22 10 41t39 19q15 0 26.5 -9t15.5 -24z" />
    <glyph glyph-name="bracketright" unicode="]" horiz-adv-x="456" 
d="M397.5 870q11.5 -13 8.5 -31l-124 -872q-2 -16 -14.5 -27t-28.5 -11h-150q-18 0 -29.5 13t-9.5 31q2 11 8 19.5t15.5 13.5t20.5 5h97l112 790h-91q-18 0 -29.5 13t-8.5 31q2 16 14.5 27t29.5 11h150q18 0 29.5 -13z" />
    <glyph glyph-name="underscore" unicode="_" horiz-adv-x="656" 
d="M62 51h544l-12 -85h-544z" />
    <glyph glyph-name="a" unicode="a" 
d="M460 233h41l-181 -232q-21 -5 -49 -1q-42 6 -46.5 51t21.5 123q-54 -96 -96.5 -137.5t-87.5 -43.5q-10 0 -21 1.5t-24.5 8.5t-24 18.5t-17 32.5t-5.5 49.5t12 71.5t34 95q28 65 61 108.5t62 62t57 23t47.5 -1t31.5 -16.5q35 -31 33 -81q14 30 28 59v1q4 11 6 16
q4 11 13.5 17.5t20.5 6.5h79h32q-4 -1 -10.5 -4.5t-22.5 -23.5t-28 -50q-61 -161 -76 -205v-2l-1 -1q-7 -21 -12 -39q-2 -5 -3 -9q-2 -10 -5 -24q-2 -5 -2 -9q-5 -21 -7 -42q95 114 140 177zM78 48q37 -42 138 138q26 46 57 106q9 40 8.5 65t-7 37t-17.5 14
q-21 3 -45.5 -15.5t-49.5 -56t-49 -89.5q-22 -49 -33 -93t-10.5 -70t8.5 -36z" />
    <glyph glyph-name="b" unicode="b" horiz-adv-x="459" 
d="M475 239l-10 -35l-103 -44q-28 -57 -60 -94.5t-59.5 -52.5t-54.5 -18.5t-45.5 2.5t-30.5 17q-4 3 -5 5q-18 17 -18 39.5t20 33.5v0l135 55q17 29 33 63q17 37 27.5 72t13.5 60t1.5 42.5t-7.5 24.5q-37 42 -138 -138q-26 -46 -56 -106q-21 -43 -37 -75q-14 -29 -36 -77
q-6 -31 -8.5 -52.5t-0.5 -32.5q-68 -9 -87 24.5t2 113.5q28 115 197 631q4 11 13.5 18t20.5 7h120q-4 -1 -10.5 -4.5t-22.5 -23.5t-28 -49q-99 -281 -155 -474q79 161 133 225.5t109 67.5q15 0 30.5 -3.5t33 -19.5t25 -42.5t-0.5 -78t-36 -119.5zM133 49q34 -5 76 46
l-87 -37q4 -8 11 -9z" />
    <glyph glyph-name="c" unicode="c" horiz-adv-x="329" 
d="M81 55q25 -31 102.5 26.5t148.5 151.5h38q-36 -45 -71.5 -83.5t-77 -75.5t-83 -59t-75.5 -22q-10 0 -20.5 2t-24.5 9t-24.5 18t-17.5 32.5t-6 49.5t12 71t34 95q25 60 56 102t58 61.5t54.5 27t47.5 4.5t36 -12q14 27 31 46h108q-23 -15 -45 -39t-36.5 -47t-25.5 -45
t-16.5 -37t-5.5 -20q-52 20 -29 97q-31 -1 -66.5 -43.5t-69.5 -117.5q-22 -49 -32.5 -91.5t-9 -66.5t9.5 -34z" />
    <glyph glyph-name="d" unicode="d" horiz-adv-x="464" 
d="M578 722q-3 -1 -9.5 -4.5t-23 -23.5t-27.5 -49q-82 -232 -148.5 -450.5t-56.5 -266.5q-69 -10 -88 24t3 114q9 38 48 165q-66 -129 -114.5 -182.5t-99.5 -55.5q-10 0 -21 1.5t-24.5 8.5t-24 18.5t-17 32.5t-5.5 49.5t12 71.5t34 95q28 65 61.5 109t62.5 62t57.5 23
t48 -0.5t32.5 -16.5q33 -30 31 -80q16 34 30 65q46 143 86 265q3 11 13 18t21 7h119zM78 48q37 -42 138 138q26 46 57 106q6 29 8 51.5t-1.5 35.5t-9 20.5t-13.5 8.5q-32 4 -70 -39t-74 -122q-22 -49 -33 -93t-10.5 -70t8.5 -36z" />
    <glyph glyph-name="e" unicode="e" horiz-adv-x="327" 
d="M332 233h38q-36 -45 -71.5 -83.5t-77 -75.5t-83 -59t-75.5 -22q-10 0 -20.5 2t-24.5 9t-24.5 18t-17.5 32.5t-6 49.5t12 71t34 95q23 55 50 94.5t52.5 60t50.5 31t46 10t36.5 -5.5t26.5 -13q46 -37 32 -101q-11 -51 -61 -86.5t-146 -36.5q-17 -43 -24.5 -79.5t-6.5 -58
t9 -30.5q25 -31 102.5 26.5t148.5 151.5zM257 408q-11 1 -22 -2.5t-22.5 -12t-23.5 -22t-24 -30.5t-24 -38.5t-24 -46.5q45 0 78.5 11t50.5 27.5t25 31t10 27.5q3 24 -4.5 38.5t-19.5 16.5z" />
    <glyph glyph-name="f" unicode="f" horiz-adv-x="219" 
d="M302 722q-4 -1 -10.5 -4.5t-22.5 -23.5t-28 -49q-80 -228 -135 -407h125l-9 -29h-104q24 -38 26 -86t-12.5 -88t-40.5 -70t-55 -37q-68 -9 -87 24.5t2 113.5q28 115 197 631q4 11 13.5 18t20.5 7h120zM40 -16q-4 -26 8 -24q18 3 41 49q43 83 18 149q-6 16 -16 29
q-35 -120 -49 -187v-1.5v-1.5q-1 -5 -2 -13z" />
    <glyph glyph-name="g" unicode="g" horiz-adv-x="471" 
d="M516 233q-15 -12 -42 -31.5t-67 -48.5t-69 -50q-26 -79 -46 -146q-31 -98 -75 -148t-115 -54q-55 -3 -73 34t13 87q36 58 172 167q1 2 2 5t1.5 5.5t1.5 5t2 5.5q6 20 11 37l38 118q-64 -122 -111 -172.5t-97 -53.5q-10 0 -21 1.5t-24.5 8.5t-24 18.5t-17 32.5t-5.5 49.5
t12 71.5t34 95q28 65 61.5 109t62.5 62t57 22.5t47.5 -1t32.5 -16.5q34 -30 31 -80q16 32 29 61q2 5 4 13q4 11 13.5 18t21.5 7h86h33q-1 0 -2 -0.5t-5.5 -3t-8.5 -6t-10 -9.5t-11.5 -14t-12 -19.5t-11.5 -25.5q-44 -124 -81 -239q30 23 70 51.5t47 33.5h46zM78 48
q37 -42 138 138q26 46 57 106q6 29 8 51.5t-1.5 35.5t-9 20.5t-13.5 8.5q-21 3 -45.5 -15.5t-49.5 -56t-49 -89.5q-22 -49 -33 -93t-10.5 -70t8.5 -36zM89 -205q50 17 99 161h-1q4 11 12 39q-108 -92 -138 -150q-11 -20 -2.5 -38.5t30.5 -11.5z" />
    <glyph glyph-name="h" unicode="h" horiz-adv-x="442" 
d="M445 233h42l-182 -232q-21 -5 -49 -1q-59 8 -43 100q10 64 90 276l14 37q-42 -31 -104.5 -123.5t-113.5 -196t-63 -165.5q-68 -9 -87 24.5t2 113.5q28 115 197 631q4 11 13.5 18t20.5 7h120q-4 -1 -10.5 -4.5t-22.5 -23.5t-28 -49q-109 -310 -165 -508
q62 125 139.5 226.5t120.5 101.5v0h60q17 0 26 -13t3 -29q-78 -207 -92 -249q-2 -4 -6 -19q-2 -5 -5 -16q-8 -25 -11 -47q-4 -17 -6 -37q96 115 140 178z" />
    <glyph glyph-name="i" unicode="i" horiz-adv-x="197" 
d="M239 642l63 -1q-24 -5 -56 -60q-5 -8 -9 -17q-12 -22 -24 -50h-105q7 18 14 36.5t14.5 38t12.5 30.5q9 25 34 25l55 -2h1zM57 56q96 114 140 177h42l-182 -232q-21 -5 -49 -1q-59 8 -43 100q11 65 91 278q15 41 23 63q4 11 13.5 17.5t20.5 6.5h80q-14 -37 -42 -109.5
t-43.5 -115.5t-26.5 -76l-1 -4q-14 -44 -18 -70v-3q-3 -14 -5 -31z" />
    <glyph glyph-name="j" unicode="j" horiz-adv-x="188" 
d="M188 233h46q-14 -12 -41 -31.5t-67.5 -48t-68.5 -50.5q-26 -80 -46 -147q-31 -99 -75.5 -149.5t-114.5 -51.5q-60 0 -76 35.5t16 85.5q36 58 172 167q0 1 2.5 8.5t3.5 12.5q6 19 12 37q57 181 109 339q4 11 13.5 18t20.5 7h86q-7 -21 -27 -77v-1q-44 -124 -82 -239
q31 23 71 51.5t46 33.5zM-192 -205q49 18 98 161q7 24 12 40q-111 -93 -141 -152q-11 -20 -2 -39t33 -10zM221 642l63 -1q-24 -5 -56 -60q-5 -8 -9 -17q-12 -22 -24 -50h-105q9 24 23.5 61t17.5 44q9 25 34 25l55 -2h1z" />
    <glyph glyph-name="k" unicode="k" horiz-adv-x="373" 
d="M125 124q20 -17 41.5 -29.5t50 -21t62 -3t66.5 26.5q-17 -41 -40.5 -64.5t-47 -29t-47.5 -1.5t-42 14t-31 22q-33 31 -64 85q-44 -159 -37 -195q-68 -9 -87 24.5t2 113.5q28 115 197 631q4 11 13.5 18t20.5 7h120q-4 -1 -10.5 -4.5t-22.5 -23.5t-28 -49
q-75 -213 -128 -385q4 6 10 19q60 111 88.5 148.5t63.5 37.5q11 0 24.5 -6t27.5 -22t20 -40t-3 -65t-36 -92q-22 -39 -47.5 -65.5t-48.5 -37t-46.5 -15t-40.5 1.5zM258 425q-9 11 -41 -40q-16 -26 -63 -110q-37 -65 -59 -103q2 -1 3 -2q24 -5 56 24t64 86q21 35 32.5 68
t12 50.5t-4.5 26.5z" />
    <glyph glyph-name="l" unicode="l" horiz-adv-x="192" 
d="M302 722q-4 -1 -10.5 -4.5t-22.5 -23.5t-28 -49q-82 -232 -148.5 -450.5t-56.5 -266.5q-68 -9 -87 24.5t2 113.5q28 115 197 631q4 11 13.5 18t20.5 7h120z" />
    <glyph glyph-name="m" unicode="m" horiz-adv-x="632" 
d="M634 233h42l-182 -232q-20 -5 -51 -1q-62 9 -33 134q17 72 95 281q-59 -88 -207 -334q-9 -16 -28 -16h-39q-17 0 -27 13t-5 28q52 193 85 283q-39 -50 -91.5 -134t-99.5 -178.5t-57 -148.5v0q-68 -9 -87 24.5t2 113.5q17 70 114 374q1 3 3 6t4 5.5t4.5 5t5 4t5.5 3t6.5 2
t6.5 0.5h115q-4 -1 -10.5 -4.5t-22 -22.5t-27.5 -47q-51 -156 -81 -264q58 116 136.5 226.5t101.5 110.5h61q16 0 25 -13t3 -29q-27 -72 -65 -197q72 116 131 199t73 83h60q17 0 25.5 -13.5t2.5 -29.5q-97 -257 -113 -310q-11 -39 -16 -65v-3q-3 -14 -4 -31q94 114 139 177z
" />
    <glyph glyph-name="n" unicode="n" horiz-adv-x="443" 
d="M444 233h43l-182 -232q-21 -5 -49 -1q-59 8 -43 100q11 65 91 279l6 15q-71 -81 -165 -233.5t-109 -232.5v0q-68 -10 -87 24t2 114q17 70 114 374q1 3 3 6t4 5.5t4.5 5t5 4t5.5 3t6.5 2t6.5 0.5h115q-2 -1 -4.5 -2t-9.5 -6t-14 -12.5t-16 -22t-16 -31.5
q-54 -167 -85 -278q40 77 98.5 161t105.5 137t62 53h60q17 0 26 -13t3 -29q-75 -197 -91 -244q-3 -8 -5 -18q-4 -11 -6 -17q0 -1 -1 -5q-7 -25 -11 -47q-3 -17 -5 -35q94 113 138 176z" />
    <glyph glyph-name="o" unicode="o" horiz-adv-x="370" 
d="M302 241q39 -6 81 -2l-9 -30q-42 -4 -82 2q-9 -21 -10 -24q-25 -60 -57 -101.5t-63.5 -60t-59 -24.5t-50.5 -2v-1q-6 2 -13 5q-12 4 -19 11h-1q-88 64 -20 256q8 21 30 61q3 4 4 7q4 6 5 7q11 17 26 29t33 18q6 1 13 3q14 36 52 55t74 14q14 -3 27 -8t29 -20.5t24 -38
t5.5 -63.5t-19.5 -93zM220 409q-15 16 -37 10t-36 -27q17 -5 28 -18q-14 -15 -29 -37q20 -36 63 -63h1q16 50 18 88.5t-8 46.5zM185 210q6 15 13 32q-44 23 -74 59q-14 -25 -27 -54q-29 -63 -39.5 -119t0.5 -78q30 8 63 49.5t64 110.5z" />
    <glyph glyph-name="p" unicode="p" horiz-adv-x="455" 
d="M470 239l-10 -35l-104 -44q-27 -57 -59 -94.5t-60 -52.5t-55 -18.5t-45.5 2.5t-30.5 17l-5 5q-17 17 -17.5 39.5t19.5 33.5v0l136 54q17 30 32 64q22 49 33 93t10.5 70t-8.5 36q-36 42 -138 -138q-26 -46 -56 -107l-37 -74q-13 -28 -32 -69q-26 -88 -36 -131
q-27 -106 -21 -135q-68 -10 -87 24t2 114q9 37 67.5 230t98.5 317q1 4 3 7.5t4.5 6t6 5t7 4t7 2.5t7.5 1h115q-4 -1 -10 -4.5t-22 -22t-27 -45.5q-27 -83 -58 -184q70 138 120 194.5t103 59.5q15 0 30 -3.5t32.5 -19.5t25 -42.5t0 -78t-36.5 -119.5zM127 49q35 -5 77 46
l-87 -37q4 -8 10 -9z" />
    <glyph glyph-name="q" unicode="q" horiz-adv-x="464" 
d="M489 466q-4 -1 -10 -4.5t-21.5 -22t-27.5 -45.5q-113 -351 -151 -504q-27 -106 -21 -135q-68 -9 -87 24.5t2 113.5q13 50 99 329q-65 -124 -112.5 -175.5t-97.5 -53.5q-10 0 -21 1.5t-24.5 8.5t-24 18.5t-17 32.5t-5.5 49.5t12 71.5t34 95q28 65 61.5 108.5t63 61t58 22
t48 -1.5t31.5 -17q33 -29 31 -76q12 25 23 49q1 3 2.5 8t3 9t2.5 7q3 11 13 18.5t21 7.5h115zM78 48q37 -42 138 138q26 46 57 106q9 40 8.5 65t-7 37t-17.5 14q-21 3 -45.5 -15.5t-49.5 -56t-49 -89.5q-22 -49 -33 -93t-10.5 -70t8.5 -36z" />
    <glyph glyph-name="r" unicode="r" horiz-adv-x="395" 
d="M368 465q9 0 18 -3.5t16 -10t7.5 -15.5t-9.5 -21q-39 -45 -71 -123t-24 -121q-30 -5 -49 5t-24 29t-4 40t8 40q7 22 23 58t19 44q-65 -85 -146 -232.5t-96 -226.5q-68 -10 -87 24t2 114q17 70 114 374q1 3 3 6t4 5.5t4.5 5t5 4t5.5 3t6.5 2t6.5 0.5h115q-4 -1 -10.5 -5
t-22 -22.5t-27.5 -46.5q-50 -154 -80 -261q28 57 64.5 118t69.5 108t60.5 77.5t37.5 30.5h61z" />
    <glyph glyph-name="s" unicode="s" horiz-adv-x="330" 
d="M284 499h109q-26 -16 -49 -43q-33 -37 -56 -82.5t-24 -61.5v-1l-1 0.5t-2 1.5q-24 10 -30 34v1q-8 27 6 67q-14 3 -26.5 4t-30 -3.5t-32 -15t-27 -33.5t-18.5 -56q0 -12 -1.5 -19.5t2 -19t5 -18.5t7.5 -18.5t9.5 -18t11 -17.5t12 -17l12 -16t11.5 -16q118 65 168 82
l-8 -29v-3q-72 -33 -144 -74q10 -16 15.5 -28.5t10 -29t2.5 -34t-10 -35.5q-27 -66 -115 -79q-73 -12 -120 17q-47 28 -12 70q4 5 9 10q16 15 43.5 33.5t56.5 35.5t35 21q-3 3 -17 17.5t-18.5 19t-16.5 18t-17 20t-13.5 19t-12.5 21.5t-7.5 20.5t-3.5 21.5q-2 15 -2 26
q3 59 30.5 101t66 58.5t81 16.5t78.5 -19q15 31 33 51zM69 -21q86 41 53 106q-9 -6 -30.5 -19t-36 -22t-31 -20t-26.5 -20t-11 -15q-1 -15 25 -18t57 8z" />
    <glyph glyph-name="t" unicode="t" horiz-adv-x="183" 
d="M397 514h-201q-174 -514 -160 -586q-68 -9 -87 24.5t2 113.5q20 78 138 448h-214l16 50h214q24 72 44 133q3 11 12.5 18t21.5 7h119q-4 -1 -10.5 -4.5t-22.5 -23.5t-27 -49q-15 -42 -29 -81h200z" />
    <glyph glyph-name="u" unicode="u" horiz-adv-x="430" 
d="M435 232h36q-36 -80 -66 -129.5t-58 -72.5t-51 -29t-54 -2q-32 5 -42 32.5t1 75.5q-27 -41 -51.5 -67t-43 -33.5t-36.5 -10t-31 3.5q-47 11 -56 67t13 145t74 229q4 11 13.5 17.5t20.5 6.5h80q-139 -369 -79 -390q30 -10 67.5 44t81.5 162q8 21 17.5 47t22 58.5
t20.5 53.5q1 5 3.5 8.5t6 6.5t7.5 5t8 3t8 1h47v1h65q-4 -1 -10.5 -5t-22 -22.5t-27.5 -47.5q-88 -231 -99 -285q-11 -51 6 -60q16 -9 52.5 45.5t76.5 141.5z" />
    <glyph glyph-name="v" unicode="v" horiz-adv-x="371" 
d="M360 490q4 -59 -14 -126t-48.5 -125.5t-64.5 -105.5t-67 -81q-42 -43 -85.5 -60.5t-66.5 -5.5q-58 31 -39 138q14 75 101 309v1v1l1 1v1l1 1v1l1 2v1l1 1q8 22 31 22h113q-4 -1 -10.5 -4.5t-22 -22t-26.5 -46.5q-84 -220 -94 -272q-8 -45 9 -54q9 -6 62 55
q43 49 79.5 124.5t52 157t-15.5 136.5q10 11 23.5 15.5t27 1.5t24.5 -10.5t18.5 -22t8.5 -33.5z" />
    <glyph glyph-name="w" unicode="w" horiz-adv-x="537" 
d="M524 490q12 -121 -32 -243.5t-115 -194.5q-42 -43 -86 -61t-67 -5q-35 19 -42 62q-1 7 -1 20q-8 -9 -15 -16q-42 -43 -85.5 -60.5t-66.5 -5.5q-58 31 -39 138q14 75 100 308l1 1v1l1 1v1v1l1 1v2l1 1v1l1 1q8 22 31 22h37h76q-4 -1 -10.5 -4.5t-22 -22t-26.5 -46.5l-2 -3
q-83 -219 -92 -270q-8 -44 9 -53q10 -5 62 55q38 43 72 110l0.5 0.5t0.5 1.5h100q1 0 1 1t1 2q-1 -1 -1 -2v-1q-19 -52 -28 -84.5t-9 -54.5t11 -28q6 -3 27.5 16.5t35.5 38.5q42 57 65.5 149t23.5 182q0 52 -21 87q20 17 42 18t40 -17.5t21 -49.5z" />
    <glyph glyph-name="x" unicode="x" horiz-adv-x="379" 
d="M385 232h35q-35 -80 -65.5 -129.5t-58.5 -72.5t-51 -29t-53 -2q-33 5 -64.5 30.5t-52.5 68.5q-17 -24 -25 -35q-77 -106 -84 -135q-15 2 -25.5 7.5t-14.5 13t-6 15t1.5 18.5t6.5 19t10 19.5t11 18t11 16t8 11.5q20 28 82 109q-23 119 31 265q4 11 13.5 17.5t20.5 6.5h80
q-41 -87 -51 -168q27 34 113 144q20 26 47 26h91q-4 -1 -12 -5t-32.5 -22.5t-49.5 -46.5q-90 -113 -157 -202q9 -62 37 -103t56 -49q30 -8 70 48.5t78 145.5z" />
    <glyph glyph-name="y" unicode="y" horiz-adv-x="434" 
d="M480 233q-15 -12 -41.5 -31.5t-67 -48.5t-69.5 -50q-25 -79 -46 -146q-30 -99 -74.5 -148.5t-114.5 -53.5q-56 -3 -74 34t14 87q36 58 172 167q0 2 1.5 6.5t2.5 8t2 6.5q6 20 12 37q0 2 4 13t5 17q-23 -40 -45.5 -68t-39.5 -41.5t-35 -19.5t-29.5 -5.5t-26.5 3.5
q-47 11 -56.5 67t12 145.5t73.5 228.5q4 11 13 17.5t20 6.5h80q-67 -178 -86.5 -278.5t10.5 -111.5q21 -7 45.5 16.5t51.5 75.5t53 115.5t57 150.5q1 1 1.5 3.5t1.5 3.5q0 1 0.5 1.5l0.5 0.5l0.5 1t0.5 2q10 20 32 20h86h33q-3 -1 -10 -4.5t-23 -23.5t-28 -50
q-43 -124 -81 -239q31 23 70.5 51.5t46.5 33.5h46zM53 -205q50 17 99 161q3 11 12 39q-109 -92 -139 -150q-10 -20 -1.5 -38.5t29.5 -11.5z" />
    <glyph glyph-name="z" unicode="z" horiz-adv-x="418" 
d="M419 233h46q-15 -12 -42 -31.5t-67 -48.5t-69 -50l-2 -6q-26 -83 -44 -141q-31 -98 -75 -147.5t-114 -53.5q-56 -3 -74 34t13 87q36 58 172 167q1 2 2.5 7t2.5 7q0 2 2 7v1l1 2v1q0 2 1 6q1 1 1 3l1 1q22 67 -31 64q-37 -3 -88 -31l-13 31v0h1v1q117 94 180 145
q63 52 65 79q1 20 -46 2q-40 -17 -84 -49q-33 -24 -56 -46q-2 -1 -5 -5q-16 -16 -25 -31q-1 -1 -1 -2q-23 -33 -28 -60q-1 0 -2 1q-11 6 -20.5 18.5t-14.5 34t0.5 46t31.5 58t72 66.5q48 35 90 50.5t68 14t46 -12t29 -21.5t12 -21q10 -27 -22 -77t-106 -108q50 -3 66 -54
q3 -12 2 -27q3 2 7 4v1q23 17 50 36t43.5 31t23.5 17zM38 -205q50 17 99 161h-1q1 4 5.5 17.5t6.5 20.5v1q-108 -92 -138 -151q-11 -19 -2.5 -37.5t30.5 -11.5z" />
    <glyph glyph-name="braceleft" unicode="{" horiz-adv-x="1855" 
d="M135 714v11v79v9v7q0 3 -2 3l-12 4l-1 4h25h15h14q23 0 35 -9t12 -26q0 -21 -14 -33q-12 -11 -38 -11h-15v-27v-11v-8q2 -3 3 -3l13 -4l1 -4h-26h-24l-1 4l12 3q3 2 3 3v9zM154 823v-62q10 -2 14 -2q15 0 23 8q9 9 9 25q0 14 -8 24q-7 7 -25 7h-13zM276 692q-22 0 -34 12
q-14 14 -14 34t13 36q12 13 33 13q17 0 27 -10q9 -11 9 -28v-6h-62q0 -20 10 -30q10 -9 31 -9q6 0 20 2l1 -4q-6 -4 -18 -8q-10 -2 -16 -2zM256 771q-7 -9 -7 -20h41v3q0 15 -4 20q-5 6 -13 6q-11 0 -17 -9zM336 705v12v33q0 18 -1 24l-13 3v3q11 3 31 7h1v-12q18 12 35 12
h1l-6 -30l-4 -1q-1 2 -1.5 4t-1 3.5l-1 3t-1.5 2.5q-3 5 -8 5q-7 0 -13 -5v-42v-21q0 -2 2 -4l13 -3l1 -4h-25h-23v4l11 3q3 0 3 3zM430 700q8 0 14 4t6 11q0 5 -4 9q-3 4 -12 7l-10 3q-14 5 -18 11q-5 7 -5 15q0 13 10 20q8 7 25 7q16 0 27 -4q-1 -4 -2.5 -11.5t-2.5 -11.5
l-4 -1l-6 18q-8 2 -12 2q-10 0 -15 -4q-5 -3 -5 -9t3 -10q5 -4 14 -6l8 -3q7 -3 20 -10q6 -6 6 -16q0 -13 -11 -21t-26 -8q-14 0 -31 6q2 5 4 14.5t2 10.5h4l7 -20q4 -3 14 -3zM526 692q-20 0 -33 13q-12 13 -12 34q0 22 13 35t34 13t33 -12q12 -13 12 -33q0 -23 -13 -36
q-14 -14 -34 -14zM507 770q-6 -9 -6 -29q0 -19 7 -30q6 -11 20 -11q12 0 19 10q6 10 6 30q0 19 -7 29q-6 11 -19 11q-12 0 -20 -10zM600 705v12v33v24l-13 3v3q4 1 30 7h1v-12q18 12 32 12t22 -7q7 -8 7 -22v-35q0 -5 0.5 -11t0.5 -7q0 -3 2 -3l11 -3v-4h-22h-21l-1 4l10 2
q2 2 2 3v7v42q0 13 -5 17q-5 5 -17 5q-8 0 -20 -5v-43v-22q0 -3 2 -3l10 -3v-4h-21h-23v4l11 3q2 0 2 3zM732 692q-15 0 -22 7q-8 5 -8 19q0 15 13 22q16 7 42 7v7q0 10 -5 17q-7 5 -18 5q-10 0 -22 -4l-2 7q16 8 33 8q16 0 24 -7q9 -9 9 -23l-1 -40v-8q0 -3 2 -5t4 -2
q2 -1 8 -1v-4q-2 -1 -10 -3l-8 -2q-10 0 -13 10q-13 -10 -26 -10zM729 735q-7 -4 -7 -14t4 -13q5 -4 14 -4q10 0 17 3v32q-21 0 -28 -4zM811 827l-13 4v4q22 4 31 6h1v-44v-64v-28q0 -3 3 -3l10 -3v-4h-22h-23v4l11 3q2 0 2 3t0.5 11t0.5 13v40q0 13 -0.5 32.5t-0.5 25.5z
M917 823l-12 4v4h24h24v-4l-12 -4q-2 0 -2 -3q0 -5 -1 -7v-9v-53q0 -29 9 -39q9 -11 29 -11t29 12q9 11 9 37v54v9q0 1 -0.5 3.5t-0.5 3.5q0 3 -2 3l-12 4v4h21h21v-4l-12 -4q-2 0 -2 -3v-7v-9v-50q0 -31 -13 -47t-41 -16q-27 0 -41 14q-13 15 -13 43v56v9v7q0 3 -2 3z
M1080 700q8 0 14 4t6 11q0 5 -4 9q-3 4 -12 7l-10 3q-14 5 -18 11q-5 7 -5 15q0 13 10 20q8 7 25 7q16 0 27 -4q-1 -4 -2.5 -11.5t-2.5 -11.5l-4 -1l-6 18q-8 2 -12 2q-10 0 -15 -4q-5 -3 -5 -9t3 -10q5 -4 14 -6l8 -3q8 -3 20 -10q6 -6 6 -16q0 -13 -11 -21t-26 -8t-30 6
q4 19 5 25h4l7 -20q4 -3 14 -3zM1179 692q-22 0 -35 12q-13 13 -13 34t12 36q12 13 33 13q18 0 27 -10q10 -12 10 -28q0 -1 -0.5 -3t-0.5 -3h-61q0 -21 10 -30q9 -9 30 -9q6 0 20 2l1 -4q-7 -5 -17 -8q-12 -2 -16 -2zM1158 771q-5 -7 -7 -20h42v3q0 13 -5 20q-4 6 -13 6
q-11 0 -17 -9zM1342 691q-32 0 -51 19q-17 20 -17 51q0 35 19 54t53 19q33 0 51 -18q17 -19 17 -50q0 -35 -19 -54q-18 -21 -53 -21zM1306 811q-11 -16 -11 -46q0 -33 13 -49q12 -17 37 -17t36 15q12 16 12 49q0 31 -12 47q-13 16 -38 16t-37 -15zM1443 705q1 4 1 12v33
q0 5 -0.5 12.5t-0.5 11.5l-13 3v3q11 3 31 7h1v-12q16 12 31 12t22 -7q8 -10 8 -22v-35v-18q0 -3 2 -3l11 -3v-4h-22h-21l-1 4l10 2q2 1 2 3q1 1 1 7v42q0 12 -6 17q-5 5 -17 5q-8 0 -20 -5v-43v-22q0 -3 2 -3l10 -3v-4h-21h-23v4l11 3q2 0 2 3zM1559 827l-14 4v4q22 4 32 6
h1q-1 -11 -1 -44v-64v-28q0 -3 3 -3l11 -3v-4h-23h-22l-1 4l11 3q3 0 3 3v24v40v58zM1599 778l-8 3v4h21h21l1 -4l-12 -3q1 -3 4 -10.5l5 -12.5q6 -16 10 -25q0 -1 5 -13q1 5 5 15q2 4 5 11.5t4 10.5q4 10 9 24l-11 3v4h16h17l1 -4l-9 -2q-4 -2 -5 -4t-3.5 -8.5t-3.5 -10.5
q-8 -18 -20 -49q-6 -18 -8 -27q-5 -21 -5 -23q-2 -6 -4 -7q-3 -3 -13 -3q-13 0 -19 1v4q10 2 15 6q6 6 20 36v2h-1q-7 18 -19 47t-13 31q-2 4 -5 4zM1727 734l-6 -1l-8 93l22 1h1zM1724 692q-4 0 -9 3q-3 5 -3 9q0 5 3 8q5 3 9 3q5 0 8 -3q4 -4 4 -8q0 -3 -4 -9q-3 -3 -8 -3
zM808 590h20h20v-4l-9 -3q-4 -2 -5 -3q-4 -7 -4 -9l-47 -112l-10 -1l-41 113q-4 8 -5 9q-3 3 -5 3l-9 3v4h22h26v-4l-9 -3q-2 0 -2 -1q-1 -1 -1 -3t1 -5q0 -1 1 -3.5t2 -4.5l30 -84l33 84l3 9q1 2 1 5q0 2 -1 2q0 1 -3 1l-8 3v4zM869 570q-4 0 -7 3t-3 7q0 5 3 8t8 3
q4 0 8 -2q3 -3 3 -8t-4 -8q-3 -3 -8 -3zM862 469v12v31v23l-13 3v3q6 1 17 4t13 3l1 -1v-27v-36v-15q0 -3 2 -3l11 -4v-3h-22h-22v3l11 4q2 0 2 3zM959 464q-11 -8 -26 -8q-14 0 -29 6q4 16 5 24h4l7 -20q6 -2 13 -2q10 0 14 4q6 3 6 10q0 5 -4 9q-3 4 -11 6l-10 4
q-12 3 -17 10q-5 5 -5 14q0 13 9 20q11 7 25 7q10 0 26 -4q-4 -13 -5 -23l-4 -1l-6 18q-6 2 -12 2q-9 0 -14 -4q-5 -3 -5 -9t3 -9q5 -3 13 -6l8 -3q14 -5 19 -10q6 -6 6 -15q0 -13 -10 -20zM994 469v12v31v23l-13 3v3q6 1 17 4t13 3l1 -1v-27v-36v-15q0 -3 2 -3l11 -4v-3
h-22h-22v3l11 4q2 0 2 3zM1009 573q-3 -3 -8 -3q-4 0 -7 3t-3 7q0 5 3 8t8 3q4 0 8 -2q3 -3 3 -8q0 -4 -4 -8zM1033 539l-1 4l15 1l6 23q4 1 10 3l1 -1v-21v-4h28v-9h-28q-1 -21 -1 -51q0 -10 3 -13q3 -4 11 -4q3 0 17 2v-4q-13 -8 -28 -8q-12 0 -16 5q-5 7 -5 17q0 31 1 57
zM358 236l11 -3v-5q-8 1 -19 1t-20 -1v4l12 4q2 0 2 3v18v76v16q0 3 -2 3l-12 4v4q4 0 11 -0.5t8 -0.5t4 0.5t5 0.5l78 -98v72v15q0 3 -2 3l-11 4v4q4 0 10.5 -0.5t8.5 -0.5t8.5 0.5t10.5 0.5v-4l-11 -4q-2 0 -3 -3v-16v-104l-8 -1l-84 105v-76v-18q0 -3 3 -3zM497 226
q-14 0 -21 7q-8 5 -8 18q0 14 13 21q14 7 40 7v7q0 9 -5 16q-7 5 -17 5t-21 -4l-2 7q19 8 32 8t23 -8q8 -8 8 -21l-1 -39q0 -6 1 -8q0 -4 1 -5q0 -1 2 -1t2 -1h8v-4q-6 -2 -10 -3l-8 -2q-9 0 -12 10q-13 -10 -25 -10zM494 267q-7 -4 -7 -13q0 -10 5 -13q4 -4 13 -4t16 4v30
q-20 0 -27 -4zM591 369v-25v-37q17 11 30 11t21 -8q8 -6 8 -21v-33v-17q0 -2 2 -4l11 -3v-4q-8 1 -22 1q-13 0 -20 -1l-1 4l10 3q2 0 2 3v6v41q0 11 -5 16t-17 5q-10 0 -19 -4v-42v-22q0 -1 2 -3l10 -3v-4q-7 1 -21 1q-13 0 -21 -1l-1 4l11 3q2 2 2 3q0 3 0.5 10.5t0.5 12.5
v39q0 24 -1 34v22l-13 4v3q20 4 31 7v-1zM755 235v-4l-9 -3l-8 -2q-10 0 -13 10q-13 -10 -25 -10q-14 0 -21 7q-8 6 -8 18q0 14 13 21q14 7 40 7v7q0 11 -5 16q-7 5 -17 5q-9 0 -21 -4l-2 7q19 8 32 8t23 -8q8 -8 8 -21v-39v-8q0 -3 2 -5l4 -2h7zM724 240v31q-20 0 -27 -4
q-7 -5 -7 -13q0 -10 5 -13q4 -4 13 -4q8 0 16 3zM777 238v12v32v23l-13 3v3q20 4 30 7l1 -1v-11q17 12 34 12v-1q-1 -5 -2.5 -14.5t-2.5 -14.5h-4q-4 11 -5 12q-3 5 -8 5q-6 0 -12 -5v-40v-21q0 -3 2 -3l13 -4v-4q-10 1 -24 1q-13 0 -22 -1v4l11 3q2 2 2 3zM860 306
q-6 -3 -6 -9t4 -9q3 -3 13 -6l7 -3q14 -5 19 -10q6 -6 6 -15q0 -13 -10 -20q-10 -8 -25 -8q-14 0 -29 6q1 4 2.5 12t2.5 12h3l7 -20q8 -2 14 -2q9 0 14 4q5 3 5 10q0 6 -4 9q-3 3 -11 6l-10 3q-12 5 -17 11q-5 5 -5 14q0 13 9 20q12 7 25 7q10 0 26 -4q-4 -17 -5 -23l-4 -1
l-6 18q-6 2 -11 2q-10 0 -14 -4zM974 239v-4q-15 -9 -29 -9q-11 0 -15 6q-5 7 -5 16q0 32 1 58l-13 3l-1 4l15 1l6 23q4 1 10 3l1 -1v-21v-4h28v-9h-28q-1 -21 -1 -51q0 -10 3 -13q3 -4 11 -4q3 0 17 2zM1071 235h7v-4l-9 -3l-8 -2q-10 0 -13 11q-16 -11 -28 -11
q-18 0 -28 12q-10 13 -10 31q0 23 13 36q15 12 39 12q8 0 13 -1v40l-13 4v3q6 1 17 4t13 3l1 -1v-43v-51v-26v-7q0 -3 2 -5zM1047 242v65q-4 2 -14 2q-15 0 -24 -9q-8 -10 -8 -27q0 -18 7 -26q7 -10 21 -10q8 0 18 5zM1109 248q3 0 8 -3q3 -3 3 -8t-3 -8q-5 -3 -8 -3
q-6 0 -9 3t-3 8t3 8t9 3zM1189 310q-15 0 -22 -10q-8 -10 -8 -26q0 -19 9 -28t28 -9q5 0 19 2l1 -4q-10 -5 -15 -6q-9 -3 -17 -3q-20 0 -32 12t-12 31q0 22 13 35q16 14 35 14q14 0 27 -6q-4 -15 -5 -26h-4l-8 22q-6 2 -9 2zM1268 226q-20 0 -31 12q-12 14 -12 33
q0 21 12 34q13 13 33 13t32 -12t12 -32t-13 -35q-13 -13 -33 -13zM1250 301q-6 -9 -6 -28q0 -17 6 -29q8 -11 20 -11q11 0 18 10q6 11 6 29t-6 28q-7 10 -20 10q-12 0 -18 -9zM1426 228q-8 1 -21 1t-20 -1v4l8 3q3 0 3 3v6v41q0 12 -5 16q-5 5 -15 5q-9 0 -19 -5v-41v-22
q0 -3 2 -3l10 -3v-4q-7 1 -20 1q-14 0 -22 -1l-1 4l11 3q3 1 3 3v12v32q0 16 -1 23l-12 3l-1 3q20 4 30 7l1 -1v-11q15 12 29 12q16 0 24 -13q16 13 33 13q12 0 20 -8q7 -7 7 -21v-33q0 -14 1 -17q0 -2 2 -4l11 -3v-4q-8 1 -22 1q-13 0 -20 -1l-1 4l9 3q3 0 3 3v6v41
q0 11 -5 16q-7 5 -16 5q-12 0 -20 -7q2 -6 2 -10v-33v-18q0 -3 2 -3l10 -3v-4zM249 129l-6 -33l-4 -1l-6 26h-33v-94v-18l3 -3l14 -4v-4q-5 0 -13.5 0.5t-12.5 0.5q-3 0 -11.5 -0.5t-13.5 -0.5l-1 4l14 4q3 2 3 3v18v94h-33l-9 -25l-3 -1l-3 34l1 1q15 -1 44 -1h25
q29 0 44 1zM253 74q12 13 33 13q19 0 31 -12t12 -31q0 -22 -13 -35q-12 -13 -32 -13t-32 12q-12 13 -12 33t13 33zM303 70q-6 10 -19 10q-12 0 -18 -9t-6 -28q0 -17 6 -29q6 -11 19 -11t19 10q6 9 6 29q0 18 -7 28zM457 69q13 -1 23 -11q7 -7 7 -21q0 -19 -13 -29t-38 -10
h-10h-13h-23l-1 4l12 4q2 0 2 3q1 2 1 8v10v76v9q0 5 -1 7q0 2 -2 3l-11 4l-1 4q8 -1 24 -1q1 0 6 0.5t8 0.5h13q22 0 32 -7q10 -9 10 -22q0 -23 -25 -32zM422 122v-51h12q14 0 21 7t7 19q0 14 -8 19q-6 6 -20 6h-6h-6zM459 13q8 8 8 22t-8 22q-8 7 -27 7h-10v-57q2 -1 6 -1
q3 -1 7 -1q14 0 24 8zM592 5q1 0 3 -0.5t4 -0.5l1 -3q-2 -1 -5.5 -2t-4.5 -1q-4 -2 -8 -2q-10 0 -13 11q-14 -11 -29 -11t-22 7t-7 21v20q0 24 -1 30l-12 4l-1 3q19 4 31 7l1 -1q-1 -7 -1 -28v-30q0 -10 5 -17q7 -5 15 -5q10 0 20 5v40v22l-12 4l-1 3q19 4 31 7v-1v-29v-41
q0 -5 1 -7q0 -2 1 -3q2 -2 4 -2zM680 85h16v-4l-8 -2q-4 -2 -5 -4q0 -1 -3 -7t-4 -10q-18 -46 -19 -48q-2 -4 -4.5 -12.5t-3.5 -12.5q-5 -21 -5 -23q-1 -3 -3 -7q-2 -2 -13 -2h-18l-1 4q10 1 16 6q7 9 18 35l1 2h-1q-6 15 -16.5 40t-14.5 35q-1 2 -5 4l-8 2v4h21h20v-4
l-11 -2q2 -4 4.5 -11.5l3.5 -10.5t4.5 -11.5t5.5 -13.5q2 -6 5 -12q1 3 5 14q2 3 5 11t4 11q2 4 8 23l-10 2l-1 4h17zM793 129q29 0 44 1l1 -1l-6 -29l-3 -1l-6 22h-43v-54h9q13 0 21 1q2 0 4 2l3 13h5v-20v-19h-5l-4 13q0 2 -2 2q-5 0 -12 0.5t-10 0.5h-9v-33v-18
q0 -1 2 -3l13 -4v-4h-24h-24v4l12 4q2 0 2 3v18v76v9v7q0 1 -2 3l-12 4v4q8 -1 23 -1h23zM936 5q1 0 3 -0.5t4 -0.5v-3q-6 -2 -10 -3q-3 -2 -7 -2q-10 0 -13 11q-16 -11 -29 -11q-15 0 -22 7q-8 8 -8 21v20v30l-12 4l-1 3q19 4 31 7v-1v-28v-30q0 -10 5 -17q7 -5 15 -5t20 5
v40v22l-13 4v3q20 4 30 7l1 -1v-29v-41v-7l1 -1q1 -1 1 -2q2 -2 4 -2zM986 5l10 -3l1 -4q-5 0 -12 0.5t-10 0.5t-10.5 -0.5t-11.5 -0.5v4l10 3q3 1 3 3v24v38v56l-13 4l-1 3q20 3 31 7l1 -1q0 -4 -0.5 -18t-0.5 -25v-61q0 -20 1 -26q0 -2 2 -4zM1040 5l10 -3l1 -4
q-5 0 -12 0.5t-10 0.5t-10.5 -0.5t-11.5 -0.5v4l10 3q3 1 3 3v24v38q0 42 -1 56l-12 4l-1 3q22 4 31 7l1 -1q-1 -10 -1 -43v-61v-26q2 -3 3 -4zM1233 126l-10 -3q-4 -2 -5 -4l-4 -8l-47 -113h-9l-42 113l-4 8q-2 2 -6 4l-9 3v4q6 -1 22 -1q17 0 26 1v-4l-8 -3l-3 -1
q-1 -1 -1 -3q0 -3 1 -5t3 -8l30 -84l33 84q2 6 3 8t1 5q0 2 -1 3t-2 1l-9 2v5q6 -1 20 -1t20 1zM1264 87q17 0 26 -9q9 -10 9 -28v-5h-59q0 -20 9 -29q9 -8 30 -8q12 0 19 1l1 -4q-10 -6 -17 -7q-10 -2 -15 -2q-21 0 -33 12q-13 10 -13 32q0 20 12 34q12 13 31 13zM1280 53
v3q0 14 -4 19q-5 5 -12 5q-12 0 -17 -8q-5 -7 -7 -19h40zM1342 76q15 11 34 11q-4 -17 -5 -29l-4 -1q-1 3 -3 7.5t-2 5.5q-3 5 -8 5q-4 0 -12 -5v-40v-21q0 -3 2 -3l13 -4v-4h-24h-22v4l11 3q2 2 2 3v12v32v22l-13 4v3l30 6h1v-11zM1425 49q10 -3 19 -10q6 -6 6 -15
q0 -14 -10 -21q-8 -7 -25 -7q-14 0 -29 6q1 4 2.5 11.5t2.5 11.5l3 1l7 -20q4 -2 14 -2q8 0 14 3q5 5 5 10q0 7 -4 10q-3 3 -11 6l-10 3q-13 5 -17 10q-5 7 -5 15q0 13 9 19q10 7 25 7t26 -4q-4 -14 -5 -22l-4 -1l-6 18q-3 1 -11 1q-9 0 -15 -3q-5 -3 -5 -9t4 -9q5 -5 13 -7
zM1495 5l11 -3v-4q-4 0 -11.5 0.5t-10.5 0.5t-10 -0.5t-12 -0.5v4l11 3q2 2 2 3v12v32v22l-13 4v3q20 4 30 7l1 -1v-27v-36v-15q0 -2 2 -4zM1472 120q0 5 3 8t8 3t8 -3t3 -7q0 -5 -3 -8q-4 -4 -8 -4q-5 0 -8 3t-3 8zM1564 87q19 0 31 -12t12 -31q0 -22 -13 -35
q-12 -13 -32 -13t-32 12q-12 13 -12 33q0 21 13 33q12 13 33 13zM1582 13q6 9 6 29q0 18 -7 28q-6 10 -19 10q-12 0 -18 -9q-7 -11 -7 -28q0 -15 7 -29q6 -11 19 -11q12 0 19 10zM1651 76q15 11 30 11q14 0 21 -7q8 -8 8 -21v-33v-17q0 -2 2 -4l11 -3v-4q-4 0 -11.5 0.5
t-10.5 0.5t-9.5 -0.5t-10.5 -0.5l-1 4l10 3q2 0 2 3v6v40q0 12 -5 17q-7 5 -17 5q-7 0 -19 -5v-41v-22q0 -3 2 -3l10 -3v-4h-21h-22v4l11 3q2 2 2 3v12v32v22l-13 4v3l10 2t11 2t9 2h1v-11zM50 961h1756v-1109h-1756v1109zM1797 -139v1092h-1739v-1092h1739z" />
    <glyph glyph-name="verticalbar" unicode="|" horiz-adv-x="337" 
d="M199 976h88l-150 -1052h-87z" />
    <glyph glyph-name="braceright" unicode="}" horiz-adv-x="1855" 
d="M135 714v11v79v9v7q0 3 -2 3l-12 4l-1 4h25h15h14q23 0 35 -9t12 -26q0 -21 -14 -33q-12 -11 -38 -11h-15v-27v-11v-8q2 -3 3 -3l13 -4l1 -4h-26h-24l-1 4l12 3q3 2 3 3v9zM154 823v-62q10 -2 14 -2q15 0 23 8q9 9 9 25q0 14 -8 24q-7 7 -25 7h-13zM276 692q-22 0 -34 12
q-14 14 -14 34t13 36q12 13 33 13q17 0 26 -10q10 -10 10 -28v-6h-62q0 -20 10 -30q10 -9 31 -9q6 0 20 2v-4q-5 -4 -17 -8q-10 -2 -16 -2zM256 771q-7 -9 -7 -20h41v3q0 15 -4 20q-5 6 -13 6q-11 0 -17 -9zM336 705v12v33q0 18 -1 24l-13 3v3q11 3 31 7h1v-12q18 12 35 12
h1l-6 -30l-4 -1q-1 2 -1.5 4t-1 3.5l-1 3t-1.5 2.5q-3 5 -8 5q-7 0 -13 -5v-42v-21q0 -2 2 -4l13 -3l1 -4h-25h-23v4l11 3q3 0 3 3zM430 700q8 0 14 4t6 11q0 5 -4 9q-3 4 -12 7l-10 3q-14 5 -18 11q-5 7 -5 15q0 13 10 20q8 7 25 7q16 0 27 -4q-1 -4 -2.5 -11.5t-2.5 -11.5
l-4 -1l-6 18q-8 2 -12 2q-10 0 -15 -4q-5 -3 -5 -9t3 -10q5 -4 14 -6l8 -3q7 -3 20 -10q6 -6 6 -16q0 -13 -11 -21t-26 -8q-14 0 -31 6q2 5 4 14.5t2 10.5h4l7 -20q4 -3 14 -3zM526 692q-20 0 -33 13q-12 13 -12 34q0 22 13 35t34 13t33 -12q12 -13 12 -33q0 -23 -13 -36
q-14 -14 -34 -14zM507 770q-6 -9 -6 -29q0 -19 7 -30q6 -11 20 -11q12 0 19 10q6 10 6 30q0 19 -7 29q-6 11 -20 11q-11 0 -19 -10zM600 705v12v33v24l-13 3v3q4 1 30 7h1v-12q18 12 32 12t22 -7q7 -8 7 -22v-35q0 -14 1 -18q0 -3 2 -3l11 -3v-4h-22h-22v4l10 2q2 2 2 3v7
v42q0 12 -5 17t-17 5q-9 0 -21 -5v-43q0 -4 0.5 -11.5t0.5 -10.5t2 -3l10 -3v-4h-21h-23v4l11 3q2 0 2 3zM732 692q-15 0 -22 7q-8 5 -8 19q0 15 13 22q16 7 42 7v7q0 11 -6 17q-5 5 -17 5q-10 0 -22 -4l-2 7q16 8 33 8q16 0 24 -7q9 -9 8 -23v-40v-8q0 -3 2 -5t4 -2
q2 -1 8 -1v-4q-6 -2 -10 -3l-8 -2q-10 0 -13 10q-13 -10 -26 -10zM729 735q-7 -4 -7 -14t4 -13q5 -4 14 -4q10 0 17 3v32q-21 0 -28 -4zM811 827l-13 4l-1 4q20 3 32 6h1v-44v-64v-28q0 -3 3 -3l10 -3v-4h-22h-23v4l11 3q2 0 2 3t0.5 11t0.5 13v40q0 13 -0.5 32.5t-0.5 25.5
zM917 823l-12 4v4h24h24v-4l-12 -4q-2 0 -2 -3q0 -1 -0.5 -3.5t-0.5 -3.5v-9v-53q0 -29 9 -39q9 -11 29 -11t29 12q9 11 9 37v54v9q-1 2 -1 7q0 3 -2 3l-12 4v4h21h21v-4l-12 -4q-2 0 -2 -3v-7v-9v-50q0 -31 -13 -47t-41 -16q-27 0 -41 14q-13 15 -13 43v56v9v7q0 3 -2 3z
M1080 700q8 0 14 4t6 11q0 5 -4 9q-3 4 -12 7l-10 3q-14 5 -18 11q-5 7 -5 15q0 13 10 20q8 7 25 7q16 0 27 -4q-1 -4 -2.5 -11.5t-2.5 -11.5l-4 -1l-6 18q-8 2 -12 2q-10 0 -15 -4q-5 -3 -5 -9t3 -10q5 -4 14 -6l8 -3q8 -3 20 -10q6 -6 6 -16q0 -13 -11 -21t-26 -8t-30 6
q4 19 5 25h4l7 -20q4 -3 14 -3zM1179 692q-22 0 -35 12q-13 13 -13 34t12 36q12 13 33 13q18 0 27 -10q10 -12 10 -28q0 -1 -0.5 -3t-0.5 -3h-61q0 -21 10 -30q9 -9 30 -9q6 0 20 2l1 -4q-7 -5 -17 -8q-12 -2 -16 -2zM1158 771q-5 -7 -7 -20h42v3q0 13 -5 20q-4 6 -13 6
q-11 0 -17 -9zM1342 691q-32 0 -51 19q-17 20 -17 51q0 35 19 54t53 19t50 -18q18 -18 18 -50q0 -35 -19 -54q-18 -21 -53 -21zM1306 811q-11 -16 -11 -46q0 -33 13 -49q12 -17 37 -17t36 15q12 16 12 49q0 31 -12 47q-13 16 -38 16t-37 -15zM1443 705q0 2 0.5 6t0.5 6v33
q0 5 -0.5 12.5t-0.5 11.5l-13 3v3q11 3 31 7h1v-12q16 12 31 12t22 -7q8 -10 8 -22v-35v-18q0 -3 2 -3l11 -3v-4h-22h-21l-1 4l10 2q2 2 2 3v2q1 3 1 5v42q0 12 -6 17q-5 5 -17 5q-8 0 -20 -5v-43v-22q0 -3 2 -3l10 -3v-4h-21h-23v4l11 3q2 0 2 3zM1559 827l-14 4v4
q22 4 32 6h1q-1 -11 -1 -44v-64v-28q0 -3 3 -3l11 -3v-4h-23h-22l-1 4l11 3q3 0 3 3v24v40v58zM1599 778l-8 3v4h21h21l1 -4l-12 -3q1 -3 4 -10.5l5 -12.5q6 -16 10 -25q0 -1 5 -13q1 5 5 15q2 4 5 11.5t4 10.5q4 10 9 24l-11 3v4h16h17l1 -4l-9 -2q-4 -2 -5 -4t-3.5 -8.5
t-3.5 -10.5q-8 -18 -20 -49q-6 -18 -8 -27q-3 -15 -6 -23q0 -5 -3 -7q-3 -3 -13 -3q-13 0 -19 1v4q10 2 15 6q6 6 20 36v2h-1q-7 18 -19 47t-13 31q-2 4 -5 4zM1727 734l-6 -1l-8 93l22 1h1zM1724 692q-4 0 -9 3q-3 5 -3 9q0 5 3 8q5 3 9 3q5 0 8 -3q4 -4 4 -8q0 -3 -4 -9
q-3 -3 -8 -3zM808 590h20h20l1 -4l-10 -3q-4 -2 -5 -3q-4 -7 -4 -9l-47 -112l-10 -1l-41 113l-2.5 5t-1.5 4l-6 3l-9 3v4h22h26v-4l-9 -3q-2 0 -2 -1q-1 -1 -1 -3t1 -5q0 -1 1 -3.5t2 -4.5l30 -84l33 84l3 9q1 2 1 5q0 2 -1 2q0 1 -3 1l-8 3v4zM862 469v12v31v23l-13 3v3
q6 1 17 4t13 3l1 -1v-27v-36v-15q0 -3 2 -3l11 -4v-3h-22h-22v3l11 4q2 0 2 3zM869 570q-4 0 -7 3t-3 7q0 5 3 8t8 3q4 0 8 -2q3 -3 3 -8t-4 -8q-3 -3 -8 -3zM959 464q-11 -8 -26 -8q-14 0 -29 6q4 16 5 24h4l7 -20q6 -2 13 -2q10 0 14 4q6 3 6 10q0 5 -4 9q-3 4 -11 6
l-10 4q-12 3 -17 10q-5 5 -5 14q0 13 9 20q11 7 25 7q10 0 26 -4q-4 -13 -5 -23l-4 -1l-6 18q-6 2 -12 2q-9 0 -14 -4q-5 -3 -5 -9t3 -9q5 -3 13 -6l8 -3q14 -5 19 -10q6 -6 6 -15q0 -13 -10 -20zM1009 573q-3 -3 -8 -3q-4 0 -7 3t-3 7q0 5 3 8t8 3q4 0 8 -2q2 -2 2 -8
q0 -5 -3 -8zM994 469v12v31v23l-13 3v3q6 1 17 4t13 3l1 -1v-27v-36v-15q0 -3 2 -3l11 -4v-3h-22h-22v3l11 4q2 0 2 3zM1033 539l-1 4l15 1l6 23q4 1 10 3l1 -1v-21v-4h28v-9h-28q-1 -21 -1 -51q0 -10 3 -13q3 -4 11 -4q3 0 17 2v-4q-13 -8 -28 -8q-12 0 -16 5q-5 7 -5 17
q0 31 1 57zM358 236l11 -3v-5q-8 1 -19 1q-12 0 -20 -1v4l12 4q2 0 2 3v18v76v16q0 3 -2 3l-12 4v4q4 0 10.5 -0.5t8.5 -0.5q1 0 4 0.5t5 0.5l78 -98v72v15q0 3 -2 3l-11 4l-1 4q5 0 11.5 -0.5t8.5 -0.5t8.5 0.5t10.5 0.5v-4l-11 -4q-2 0 -3 -3v-16v-104l-8 -1l-84 105v-76
v-18q0 -3 3 -3zM497 226q-14 0 -21 7q-8 5 -8 18q0 14 13 21q14 7 40 7v7q0 9 -5 16q-7 5 -17 5t-21 -4l-2 7q19 8 32 8t23 -8q8 -8 8 -21l-1 -39q0 -6 1 -8q0 -4 1 -5q0 -1 2 -1t2 -1h8v-4q-6 -2 -10 -3l-8 -2q-9 0 -12 10q-13 -10 -25 -10zM494 267q-7 -4 -7 -13
q0 -10 5 -13q4 -4 13 -4t16 4v30q-20 0 -27 -4zM591 369v-25v-37q17 11 30 11t21 -8q8 -6 8 -21v-33v-17q0 -2 2 -4l11 -3v-4q-8 1 -22 1q-13 0 -20 -1l-1 4l10 3q2 0 2 3v6v41q0 11 -5 16t-17 5q-10 0 -19 -4v-42v-22q0 -1 2 -3l10 -3v-4q-7 1 -21 1q-13 0 -21 -1l-1 4
l11 3q2 2 2 3v23v39v34v22l-13 4v3q20 4 31 7v-1zM755 235v-4l-9 -3l-8 -2q-10 0 -13 10q-13 -10 -25 -10q-14 0 -21 7q-8 6 -8 18q0 14 13 21q14 7 40 7v7q0 11 -5 16q-7 5 -17 5q-9 0 -21 -4l-2 7q19 8 32 8t23 -8q8 -8 8 -21v-39v-8q0 -3 2 -5l4 -2h7zM724 240v31
q-20 0 -27 -4q-7 -5 -7 -13q0 -10 5 -13q4 -4 13 -4q8 0 16 3zM777 238v12v32v23l-13 3v3q20 4 30 7l1 -1v-11q17 12 34 12v-1q-1 -5 -2.5 -14.5t-2.5 -14.5h-4q-4 11 -5 12q-3 5 -8 5q-6 0 -12 -5v-40v-21q0 -3 2 -3l13 -4v-4q-10 1 -24 1q-13 0 -22 -1v4l11 3q2 2 2 3z
M859 306q-5 -3 -5 -9t4 -9q3 -3 13 -6l7 -3q14 -5 19 -10q6 -6 6 -15q0 -13 -10 -20q-10 -8 -25 -8q-16 0 -29 6q1 4 2.5 12t2.5 12h3l7 -20q8 -2 14 -2q9 0 14 4q5 3 5 10q0 6 -4 9q-3 3 -11 6l-10 3q-12 5 -17 11q-5 5 -5 14q0 13 9 20q12 7 25 7q10 0 26 -4
q-4 -17 -5 -23l-4 -1l-6 18q-6 2 -11 2q-10 0 -15 -4zM974 239v-4q-15 -9 -29 -9q-11 0 -15 6q-5 7 -5 16q0 32 1 58l-13 3l-1 4l15 1l6 23q4 1 10 3l1 -1v-21v-4h28v-9h-28q-1 -21 -1 -51q0 -10 3 -13q3 -4 11 -4q3 0 17 2zM1071 235h7v-4l-9 -3l-8 -2q-10 0 -13 11
q-16 -11 -28 -11q-18 0 -28 12q-10 13 -10 31q0 23 13 36q15 12 39 12q8 0 13 -1v40l-13 4v3q6 1 17 4t13 3l1 -1v-43v-51v-26v-7q0 -3 2 -5zM1047 242v65q-4 2 -14 2q-15 0 -24 -9q-8 -10 -8 -27q0 -18 7 -26q7 -10 21 -10q8 0 18 5zM1109 248q3 0 8 -3q3 -3 3 -8t-3 -8
q-5 -3 -8 -3q-6 0 -9 3t-3 8t3 8t9 3zM1189 310q-14 0 -22 -10t-8 -26q0 -19 9 -28t28 -9q5 0 19 2l1 -4q-10 -5 -15 -6q-9 -3 -17 -3q-20 0 -32 12t-12 31q0 22 13 35q16 14 35 14q14 0 27 -6q-4 -15 -5 -26h-4l-8 22q-6 2 -9 2zM1268 226q-20 0 -31 12q-12 14 -12 33
q0 21 12 34q13 13 33 13t32 -12t12 -32t-13 -35q-13 -13 -33 -13zM1250 301q-6 -9 -6 -28q0 -17 6 -29q8 -11 20 -11q11 0 18 10q6 11 6 29t-6 28q-7 10 -20 10q-12 0 -18 -9zM1426 228q-8 1 -21 1t-20 -1v4l8 3q3 0 3 3v6v41q0 12 -5 16q-5 5 -15 5q-9 0 -19 -5v-41v-22
q0 -3 2 -3l10 -3v-4q-7 1 -20 1q-14 0 -22 -1l-1 4l11 3q3 1 3 3v12v32q0 16 -1 23l-12 3l-1 3q20 4 30 7l1 -1v-11q15 12 29 12q16 0 24 -13q16 13 33 13q12 0 20 -8q7 -7 7 -21v-33q0 -14 1 -17q0 -2 2 -4l11 -3v-4q-9 1 -22 1t-20 -1l-1 4l9 3q3 0 3 3v6v41q0 11 -5 16
q-7 5 -16 5q-12 0 -20 -7q2 -6 2 -10v-33v-18q0 -3 2 -3l10 -3v-4zM249 129l-6 -33l-4 -1l-6 26h-33v-94v-18l3 -3l14 -4v-4q-5 0 -13.5 0.5t-12.5 0.5q-3 0 -11.5 -0.5t-13.5 -0.5l-1 4l14 4q3 2 3 3v18v94h-33l-9 -25l-3 -1l-3 34l1 1q15 -1 44 -1h25q29 0 44 1zM253 74
q12 13 33 13q19 0 31 -12t12 -31q0 -22 -13 -35q-12 -13 -32 -13t-32 12q-12 13 -12 33t13 33zM303 70q-6 10 -19 10q-12 0 -18 -9t-6 -28q0 -17 6 -29q6 -11 19 -11t19 10q6 9 6 29q0 18 -7 28zM457 69q13 -1 23 -11q7 -7 7 -21q0 -19 -13 -29t-38 -10h-10h-13h-23l-1 4
l12 4q2 0 2 3q0 1 0.5 3.5t0.5 4.5v10v76v9q0 5 -1 7q0 2 -2 3l-11 4l-1 4q8 -1 24 -1q1 0 6 0.5t8 0.5h13q22 0 32 -7q10 -9 10 -22q0 -23 -25 -32zM422 122v-51h12q14 0 21 7t7 19q0 14 -8 19q-6 6 -21 6h-5h-6zM459 13q8 8 8 22t-8 22q-8 7 -27 7h-10v-57q2 -1 6 -1
q3 -1 7 -1q14 0 24 8zM592 5q1 0 3 -0.5t4 -0.5l1 -3q-2 -1 -5.5 -2t-4.5 -1q-4 -2 -8 -2q-10 0 -13 11q-14 -11 -29 -11t-22 7t-7 21v20q0 24 -1 30l-12 4l-1 3q19 4 31 7l1 -1q-1 -7 -1 -28v-30q0 -10 5 -17q7 -5 15 -5q10 0 20 5v40v22l-12 4l-1 3q20 4 30 7l1 -1v-29
v-41q0 -5 1 -7q0 -2 1 -3q2 -2 4 -2zM680 85h16v-4l-8 -2q-4 -2 -5 -4q0 -1 -3 -7t-4 -10q-18 -46 -19 -48q-2 -4 -4.5 -12.5t-3.5 -12.5q-5 -21 -5 -23q-1 -3 -3 -7q-2 -2 -13 -2h-18l-1 4q10 1 16 6q7 9 18 35l1 2h-1q-6 15 -16.5 40t-14.5 35q-1 2 -5 4l-8 2v4h21h20v-4
l-11 -2q2 -4 4.5 -11.5l3.5 -10.5t4.5 -11.5t5.5 -13.5q2 -6 5 -12q1 3 5 14q2 3 5 11t4 11q2 4 8 23l-10 2l-1 4h17zM793 129q29 0 44 1l1 -1l-6 -29l-3 -1l-6 22h-43v-54h9q13 0 21 1q2 0 4 2l3 13h5v-20v-19h-5l-4 13q0 2 -2 2q-5 0 -12 0.5t-10 0.5h-9v-33v-18
q0 -1 2 -3l13 -4v-4h-24h-24v4l12 4q2 0 2 3v18v76v9v7q0 1 -2 3l-12 4v4q8 -1 23 -1h23zM936 5q1 0 3 -0.5t4 -0.5v-3q-6 -2 -10 -3q-3 -2 -7 -2q-10 0 -13 11q-16 -11 -29 -11q-15 0 -22 7q-8 8 -8 21v20v30l-12 4l-1 3q19 4 31 7v-1v-28v-30q0 -10 5 -17q7 -5 15 -5t20 5
v40v22l-13 4v3q20 4 30 7l1 -1v-29v-41v-7l1 -1q1 -1 1 -2q2 -2 4 -2zM986 5l10 -3l1 -4q-5 0 -12 0.5t-10 0.5t-10.5 -0.5t-11.5 -0.5v4l10 3q3 1 3 3v24v38v56l-13 4l-1 3q20 3 31 7l1 -1q0 -4 -0.5 -18t-0.5 -25v-61q0 -20 1 -26q0 -2 2 -4zM1040 5l10 -3v-4
q-4 0 -11 0.5t-10 0.5t-10.5 -0.5t-11.5 -0.5l-1 4l11 3l3 3v24v38q0 42 -1 56l-12 4l-1 3q22 4 31 7l1 -1q-1 -10 -1 -43v-61v-26q2 -3 3 -4zM1233 126l-10 -3q-4 -2 -5 -4l-4 -8l-47 -113h-9l-42 113l-4 8q-2 2 -6 4l-9 3v4q6 -1 22 -1q17 0 26 1v-4l-8 -3l-3 -1
q-1 -1 -1 -3q0 -3 1 -5t3 -8l30 -84l33 84q2 6 3 8t1 5q0 2 -1 3t-2 1l-9 2v5q6 -1 20 -1t20 1zM1264 87q17 0 26 -9q9 -10 9 -28v-5h-59q0 -20 9 -29q9 -8 30 -8q12 0 19 1l1 -4q-10 -6 -17 -7q-10 -2 -15 -2q-21 0 -34 12q-12 10 -12 32q0 20 12 34q12 13 31 13zM1240 53
h40v3q0 14 -4 19q-5 5 -12 5q-12 0 -17 -8q-5 -7 -7 -19zM1342 76q15 11 34 11q-4 -17 -5 -29l-4 -1q-1 3 -3 7.5t-2 5.5q-3 5 -8 5q-4 0 -12 -5v-40v-21q0 -3 2 -3l13 -4v-4h-24h-22v4l11 3q2 2 2 3v12v32v22l-13 4v3l30 6h1v-11zM1425 49q10 -3 19 -10q6 -6 6 -15
q0 -14 -10 -21t-25 -7t-30 6q2 5 3.5 13t2.5 10l3 1l7 -20q4 -2 14 -2q9 0 13 3q6 4 6 10t-4 10q-3 3 -11 6l-10 3q-13 5 -17 10q-5 7 -5 15q0 13 9 19q8 7 25 7q15 0 26 -4q-4 -14 -5 -22l-4 -1l-6 18q-3 1 -11 1q-9 0 -15 -3q-5 -3 -5 -9t4 -9q5 -5 13 -7zM1495 5l11 -3
v-4q-4 0 -11.5 0.5t-10.5 0.5t-10 -0.5t-12 -0.5v4l11 3q2 2 2 3v12v32v22l-13 4v3q20 4 30 7l1 -1v-27v-36v-15q0 -2 2 -4zM1472 120q0 5 3 8t8 3t8 -3t3 -7q0 -5 -3 -8q-4 -4 -8 -4q-5 0 -8 3t-3 8zM1564 87q19 0 31 -12t12 -31q0 -22 -13 -35q-12 -13 -33 -13
q-19 0 -31 12q-12 13 -12 33q0 21 13 33q12 13 33 13zM1582 13q6 9 6 29q0 18 -7 28q-6 10 -19 10q-12 0 -18 -9q-7 -11 -7 -28q0 -15 7 -29q6 -11 19 -11q12 0 19 10zM1651 76q15 11 30 11q14 0 21 -7t7 -21v-33q0 -5 0.5 -10.5t0.5 -6.5q0 -2 2 -4l11 -3v-4q-5 0 -12 0.5
t-10 0.5t-9.5 -0.5t-10.5 -0.5l-1 4l10 3q2 0 2 3v6v40q0 12 -5 17q-7 5 -17 5q-9 0 -19 -5v-41v-22q0 -3 2 -3l10 -3v-4h-21h-22v4l11 3q2 2 2 3v12v32v22l-13 4v3l30 6h1v-11zM50 961h1756v-1109h-1756v1109zM1797 -139v1092h-1739v-1092h1739z" />
    <glyph glyph-name="nonbreakingspace" unicode="&#xa0;" horiz-adv-x="296" 
 />
    <glyph glyph-name="exclamdown" unicode="&#xa1;" horiz-adv-x="322" 
d="M257 534q19 -22 14 -56q-4 -31 -26 -51t-52 -20q-31 0 -49 21q-19 22 -14 57q3 20 14 36t27.5 25t36.5 9q30 0 49 -21zM180 362q16 0 27 -12q14 -16 11 -40l-65 -528q-3 -21 -16 -34.5t-30 -13.5h-19q-16 0 -27 13q-14 16 -10 41l84 528q2 13 9 23.5t16.5 16.5t19.5 6z
" />
    <glyph glyph-name="cent" unicode="&#xa2;" horiz-adv-x="542" 
d="M471 572l21 -9l-37 -84l-22 10q-35 17 -86 17q-70 0 -121.5 -49.5t-63.5 -128.5q-11 -84 29 -131q34 -39 96 -39q54 0 103 19l28 11l9 -85l-15 -6q-50 -22 -105 -25l-15 -105h-82l15 106q-88 14 -136 75q-52 68 -35 182q14 102 80.5 172.5t163.5 88.5l15 104h82l-14 -102
q49 -2 90 -21z" />
    <glyph glyph-name="sterling" unicode="&#xa3;" horiz-adv-x="618" 
d="M438 591q-51 0 -84 -32t-41 -91q-6 -43 -4 -99h151l-12 -83h-140q-4 -71 -20 -111q-23 -57 -72 -100h294l-13 -94h-447l10 68l10 5q54 28 89.5 74t43.5 98q4 33 5 60h-108l11 83h95q-1 64 5 106q13 92 78 149.5t156 57.5q63 0 104 -21l19 -10l-37 -82l-21 9
q-30 13 -72 13z" />
    <glyph glyph-name="yen" unicode="&#xa5;" horiz-adv-x="656" 
d="M606 671l-229 -313h126l-10 -70h-161l-8 -56h161l-10 -70h-161l-25 -181h-104l25 181h-160l10 70h160l8 56h-160l10 70h130l-130 313h115l80 -220q15 -44 23 -75q21 40 48 81l143 214h119z" />
    <glyph glyph-name="section" unicode="&#xa7;" horiz-adv-x="565" 
d="M351 479q38 -13 64 -26t50 -33.5t34 -49.5t5 -66q-10 -72 -81 -124q30 -38 22 -92q-5 -40 -27 -71.5t-53.5 -50.5t-68.5 -28.5t-76 -9.5q-96 0 -153 38l-17 12l41 72l20 -13q51 -32 113 -32q50 0 83 21.5t38 57.5q3 12 0 24t-11.5 23t-31.5 23.5t-61 25.5
q-32 12 -54 21.5t-46.5 25t-38.5 32.5t-21.5 42t-3.5 54q10 72 88 121q-27 35 -21 87q10 67 71 109.5t148 42.5q75 0 132 -29l20 -11l-38 -73l-20 12q-44 24 -102 24q-30 0 -54 -9t-39.5 -25.5t-18.5 -36.5q-4 -30 20 -47.5t88 -40.5zM366 226q37 27 43 72q4 25 -10 46
t-61 39l-21 8q-70 27 -95 42q-46 -31 -52 -73q-2 -14 2 -26t25.5 -28.5t60.5 -32.5q81 -30 108 -47z" />
    <glyph glyph-name="copyright" unicode="&#xa9;" horiz-adv-x="769" 
d="M653 588q82 -99 62 -239q-20 -141 -128.5 -238.5t-245.5 -97.5q-68 0 -126 26t-98 75q-84 99 -63 241q19 139 128 236q110 98 248 98q68 0 125.5 -26t97.5 -75zM346 92q102 0 184 76.5t97 186.5q16 114 -48 188q-58 67 -153 67q-104 0 -186.5 -76.5t-98.5 -187.5
q-16 -112 48 -186q59 -68 157 -68zM436 556q26 0 51 -4.5t42.5 -11t26.5 -14.5l13 -11l-31 -70l-22 11q-37 19 -84 19q-60 0 -99.5 -34.5t-47.5 -94.5q-8 -58 21 -91q28 -34 85 -34q54 0 94 22l28 15l14 -77l-14 -8q-57 -33 -137 -33q-94 0 -144.5 58.5t-37.5 150.5
q9 64 48 112.5t90 71.5t104 23z" />
    <glyph glyph-name="guillemotleft" unicode="&#xab;" horiz-adv-x="534" 
d="M143 281l92 -157q12 -20 -1 -42q-13 -24 -39 -24q-24 0 -35 20l-105 182q-14 26 6 50l157 182q13 16 34 16q26 0 36 -23q12 -25 -7 -46zM481 485q11 -25 -8 -46l-138 -158l92 -157q12 -20 0 -42q-14 -24 -40 -24q-23 0 -34 20l-105 182q-15 26 5 50l157 182q14 16 34 16
q26 0 37 -23z" />
    <glyph glyph-name="softhyphen" unicode="&#xad;" horiz-adv-x="0" 
 />
    <glyph glyph-name="registered" unicode="&#xae;" horiz-adv-x="464" 
d="M378 817q44 -51 34 -125t-69 -125t-134 -51q-77 0 -123 53q-45 52 -34 126q10 72 70 123.5t134 51.5q76 0 122 -53zM263 728q1 7 -3 11q-5 7 -23 7q-10 0 -17 -1l-5 -38h11q34 0 37 21zM283 689q17 -13 19 -42q2 -26 4 -34l2 -10q41 38 49 91q8 58 -24 95q-30 34 -81 34
q-53 0 -95 -37.5t-50 -93.5t24 -92q30 -35 83 -35q49 0 90 34h-48l-3 6q-3 7 -5 31l-1 10q-1 11 -6 16t-19 5h-14l-10 -68h-51l25 181l8 1q26 5 63 5q39 0 60 -13q19 -17 15 -44t-35 -40z" />
    <glyph glyph-name="degree" unicode="&#xb0;" horiz-adv-x="414" 
d="M332 803q40 -46 30 -111q-9 -69 -62 -111.5t-113 -42.5q-67 0 -106 45t-29 110q8 65 58 110q51 45 116 45q67 0 106 -45zM270 697q5 32 -11 50q-13 15 -39 15q-21 0 -38 -11t-26.5 -28t-11.5 -36q-4 -29 11 -47q14 -17 38 -17q29 0 51 21.5t26 52.5z" />
    <glyph glyph-name="twosuperior" unicode="&#xb2;" horiz-adv-x="434" 
d="M382 777q-8 -55 -47.5 -100t-120.5 -108l-18 -14h162l-11 -75h-297l8 53l75 62q78 63 113.5 101.5t39.5 73.5q4 27 -9 43q-15 16 -48 16q-34 0 -73 -22l-25 -14l-21 66l15 10q59 37 126 37q71 0 107 -41q32 -37 24 -88z" />
    <glyph glyph-name="threesuperior" unicode="&#xb3;" horiz-adv-x="427" 
d="M376 798q-6 -46 -73 -89q25 -15 42 -37q25 -34 20 -68q-7 -51 -56 -89t-131 -38q-66 0 -108 23l-20 11l33 66l21 -11q36 -18 75 -18q44 0 71 24q19 17 22 39q4 31 -21 46q-25 16 -68 16h-40l3 23h-2l2 1l6 41h35q31 0 61.5 15t35.5 45q2 15 -7 25q-12 14 -40 14
q-35 0 -74 -19l-26 -13l-15 68l16 8q55 28 116 28q71 0 102 -37q27 -30 20 -74z" />
    <glyph glyph-name="periodcentered" unicode="&#xb7;" horiz-adv-x="223" 
d="M159.5 215.5q16.5 -19.5 13.5 -45.5q-4 -24 -23 -41t-44 -17q-26 0 -42.5 19t-12.5 45q1 13 7 23.5t15 18t20.5 12.5t23.5 5q26 0 42.5 -19.5z" />
    <glyph glyph-name="onesuperior" unicode="&#xb9;" horiz-adv-x="286" 
d="M159 903h77l-60 -420h-90l47 333l-78 -35l-5 75z" />
    <glyph glyph-name="guillemotright" unicode="&#xbb;" horiz-adv-x="534" 
d="M287 306q15 -25 -5 -49l-158 -183q-14 -16 -34 -16q-26 0 -36 23q-11 24 7 46l137 159l-92 157q-12 20 1 42q13 23 39 23q24 0 35 -19zM479 306q14 -25 -6 -49l-158 -183q-14 -16 -34 -16q-26 0 -36 23q-11 24 7 46l138 159l-92 157q-12 20 0 42q13 23 39 23q24 0 35 -19
z" />
    <glyph glyph-name="questiondown" unicode="&#xbf;" horiz-adv-x="501" 
d="M435 534q20 -22 15 -56q-4 -31 -26 -51t-52 -20q-31 0 -49 21q-19 22 -14 57q4 31 26 50.5t52 19.5t48 -21zM380 -158q15 -7 19 -23q1 -7 0 -14q-2 -18 -19 -29q-75 -50 -152 -50q-99 0 -145 53q-42 48 -31 125q4 28 13.5 52.5t29 50t34.5 42t47 48.5l7 7q47 48 91 119.5
t47 112.5q4 28 30 35q25 7 42 -14l5 -7l-1 -19q-1 -36 -18.5 -85.5t-46 -97.5t-58.5 -79q-49 -50 -73.5 -85.5t-29.5 -71.5q-6 -40 13 -63q22 -25 73 -26q46 0 91 20q17 7 32 -1z" />
    <glyph glyph-name="Agrave" unicode="&#xc0;" horiz-adv-x="1089" 
d="M1254 874q-179 -466 -245 -707q73 6 107 15q-2 -3 -6 -17.5t-12 -21.5q-15 -11 -103 -27q-47 -186 -32 -262q-67 0 -84.5 66.5t9.5 180.5q-97 -10 -169 -3q-138 -163 -285 -262.5t-263 -94.5q-29 -1 -51 8l-0.5 0.5t-1.5 0.5v0q-18 8 -29 21q-30 35 -37 88t9.5 113
t48.5 124t82 122.5t108 105.5t129 77t142 34q82 2 122 -37.5t20 -100.5q-28 24 -68 26.5t-82.5 -13t-90 -43.5t-91 -66t-84.5 -80t-71.5 -84.5t-51 -80.5t-23.5 -68t11 -47q11 -10 26 -14q0 -1 1 -1h1.5t1.5 -0.5t2 -0.5q9 -2 20 -1q21 0 46 5q74 19 174.5 94t203.5 191
q-26 10 -42 23q-33 27 -38 58t10 52.5t37.5 34.5t40.5 10q-17 -65 59 -98q18 22 32 41q37 49 77.5 111t75.5 121.5t69 120t60.5 111t46.5 90.5t31 63l11 22h146zM902 163q38 152 153 461q-120 -238 -248 -414q-12 -17 -27 -37q53 -9 122 -10zM1187 920q-33 34 -64.5 46
t-51.5 7t-35 -19q-10 13 -10.5 30.5t7.5 31.5t26 21t40 0q42 -12 67 -44t21 -74v1z" />
    <glyph glyph-name="Aacute" unicode="&#xc1;" horiz-adv-x="1155" 
d="M1167 874h87q-178 -465 -245 -707q73 5 107 15q-2 -3 -6 -17.5t-12 -21.5q-15 -11 -103 -27q-47 -186 -32 -262q-67 0 -84.5 66.5t9.5 180.5q-97 -10 -169 -3q-138 -163 -285 -262.5t-263 -94.5q-29 -1 -51 8l-0.5 0.5t-1.5 0.5v0q-18 8 -29 21q-35 41 -38 106t22 136
t75 145t113.5 133.5t145.5 99t164 44.5q82 2 122 -37.5t20 -100.5q-28 24 -68 26.5t-82.5 -13t-90 -43.5t-91 -66t-84.5 -80t-71.5 -84.5t-51 -80.5t-23.5 -68t11 -47q11 -10 26 -14q1 -1 1.5 -1h1t1.5 -0.5t2 -0.5q9 -2 20 -1q21 0 46 5q74 19 174.5 94t203.5 191
q-26 10 -42 23q-33 27 -38 58t10 52.5t37.5 34.5t40.5 10q-17 -65 59 -98q18 22 32 41q51 68 108 158.5t102 171.5t82.5 152.5t57.5 114.5l21 42h59zM902 163q39 152 153 461q-120 -238 -248 -414q-12 -17 -27 -37q53 -9 122 -10zM1246 1037q22 7 40 0t26 -21t7.5 -31.5
t-11.5 -30.5q-15 14 -34.5 19t-51 -7t-64.5 -46l-1 -1q-3 42 22 74t67 44z" />
    <glyph glyph-name="Acircumflex" unicode="&#xc2;" horiz-adv-x="1114" 
d="M1167 874h87q-178 -465 -245 -707q73 5 107 15q-2 -3 -6 -17.5t-12 -21.5q-15 -11 -103 -27q-47 -186 -32 -262q-67 0 -84.5 66.5t9.5 180.5q-97 -10 -169 -3q-138 -163 -285 -262.5t-263 -94.5q-29 -1 -51 8l-0.5 0.5t-1.5 0.5v0q-18 8 -29 21q-35 41 -38 106t22 136
t75 145t113.5 133.5t145.5 99t164 44.5q82 2 122 -37.5t20 -100.5q-28 24 -68 26.5t-82.5 -13t-90 -43.5t-91 -66t-84.5 -80t-71.5 -84.5t-51 -80.5t-23.5 -68t11 -47q11 -10 26 -14q0 -1 1 -1h1.5t1.5 -0.5t2 -0.5q9 -2 20 -1q21 0 46 5q74 19 174.5 94t203.5 191
q-26 10 -42 23q-33 27 -38 58t10 52.5t37.5 34.5t40.5 10q-17 -65 59 -98q18 22 32 41q37 49 77.5 111t75.5 121.5t69 120t60.5 111t46.5 90.5t31 63l11 22h59zM902 163q39 152 153 461q-120 -238 -248 -414q-12 -17 -27 -37q53 -9 122 -10zM1141 970q-10 -4 -30 -11
q-23 -5 -34 -6q6 10 21 27q15 16 23 23q22 20 51 38l15 9l13 -10q24 -19 43 -40q24 -28 36 -51q-25 5 -58 21q-17 9 -37 22q-23 -14 -43 -22z" />
    <glyph glyph-name="Atilde" unicode="&#xc3;" horiz-adv-x="1142" 
d="M1108 874h146q-178 -465 -245 -707q73 6 107 15q-2 -3 -6 -17.5t-12 -21.5q-15 -11 -103 -27q-47 -186 -32 -262q-67 0 -84.5 66.5t9.5 180.5q-97 -10 -169 -3q-138 -163 -285 -262.5t-263 -94.5q-29 -1 -51 8l-0.5 0.5t-1.5 0.5v0q-17 8 -29 21q-30 35 -37 88t9.5 113
t48.5 124t82 122.5t108 105.5t129 77t142 34q82 2 122 -37.5t20 -100.5q-28 24 -68 26.5t-82.5 -13t-90 -43.5t-91 -66t-84.5 -80t-71.5 -84.5t-51 -80.5t-23.5 -68t11 -47q11 -10 26 -14q0 -1 1 -1h1.5t1.5 -0.5t2 -0.5q9 -2 20 -1q21 0 46 5q74 19 174.5 94t203.5 191
q-26 10 -42 23q-33 27 -38 58t10 52.5t37.5 34.5t40.5 10q-17 -65 59 -98q18 22 32 41q37 49 77.5 111t75.5 121.5t69 120t60.5 111t46.5 90.5t31 63zM902 163q39 152 153 461q-120 -238 -248 -414q-12 -17 -27 -37q53 -9 122 -10zM1271 1023q28 -7 34.5 -35t-14.5 -39
q-7 14 -17.5 23t-30.5 12t-47 -11q-51 -29 -73 -23q-28 7 -34 33.5t15 37.5q6 -14 17 -21.5t31 -9t47 11.5q48 28 72 21z" />
    <glyph glyph-name="Adieresis" unicode="&#xc4;" horiz-adv-x="1127" 
d="M1108 874h146q-178 -465 -245 -707q73 6 107 15q-2 -3 -6 -17.5t-12 -21.5q-15 -11 -103 -27q-47 -186 -32 -262q-67 0 -84.5 66.5t9.5 180.5q-97 -10 -169 -3q-138 -163 -285 -262.5t-263 -94.5q-29 -1 -51 8l-0.5 0.5t-1.5 0.5v0q-18 8 -29 21q-30 35 -37 88t9.5 113
t48.5 124t82 122.5t108 105.5t129 77t142 34q82 2 122 -37.5t20 -100.5q-28 24 -68 26.5t-82.5 -13t-90 -43.5t-91 -66t-84.5 -80t-71.5 -84.5t-51 -80.5t-23.5 -68t11 -47q11 -10 26 -14q0 -1 1 -1h1.5t1.5 -0.5t2 -0.5q9 -2 20 -1q21 0 46 5q74 19 174.5 94t203.5 191
q-26 10 -42 23q-33 27 -38 58t10 52.5t37.5 34.5t40.5 10q-17 -65 59 -98q18 22 32 41q37 49 77.5 111t75.5 121.5t69 120t60.5 111t46.5 90.5t31 63zM902 163q38 152 153 461q-120 -238 -248 -414q-12 -17 -27 -37q53 -9 122 -10zM1122.5 949q-15.5 0 -26 11t-10.5 26
t10.5 26t26 11t26.5 -11t11 -26t-11 -26t-26.5 -11zM1254.5 1023q15.5 0 26.5 -11t11 -26t-11 -26t-26.5 -11t-26 11t-10.5 26t10.5 26t26 11z" />
    <glyph glyph-name="Aring" unicode="&#xc5;" horiz-adv-x="1089" 
d="M1254 874q-179 -466 -245 -707q73 6 107 15q-2 -3 -6 -17.5t-12 -21.5q-15 -11 -103 -27q-47 -186 -32 -262q-67 0 -84.5 66.5t9.5 180.5q-97 -10 -169 -3q-138 -163 -285 -262.5t-263 -94.5q-29 -1 -51 8l-0.5 0.5t-1.5 0.5v0q-18 8 -29 21q-30 35 -37 88t9.5 113
t48.5 124t82 122.5t108 105.5t129 77t142 34q82 2 122 -37.5t20 -100.5q-28 24 -68 26.5t-82.5 -13t-90 -43.5t-91 -66t-84.5 -80t-71.5 -84.5t-51 -80.5t-23.5 -68t11 -47q11 -10 26 -14q0 -1 1 -1h1.5t1.5 -0.5t2 -0.5q9 -2 20 -1q21 0 46 5q74 19 174.5 94t203.5 191
q-26 10 -42 23q-33 27 -38 58t10 52.5t37.5 34.5t40.5 10q-17 -65 59 -98q18 22 32 41q37 49 77.5 111t75.5 121.5t69 120t60.5 111t46.5 90.5t31 63l11 22h146zM902 163q39 152 153 461q-120 -237 -248 -414q-12 -17 -27 -37q53 -9 122 -10zM1186 937q-28 0 -48 19.5
t-20 47.5t20 48t48 20t47.5 -20t19.5 -48t-19.5 -47.5t-47.5 -19.5zM1185.5 1047q-17.5 0 -30 -12.5t-12.5 -30.5q0 -11 5.5 -21t15.5 -15.5t22 -5.5q17 0 29.5 12.5t12.5 30t-12.5 30t-30 12.5z" />
    <glyph glyph-name="AE" unicode="&#xc6;" horiz-adv-x="1762" 
d="M1457 883q199 35 272 -60q49 -63 25 -151q-21 -75 -78 -108q-46 -26 -95 -9q36 52 53.5 92.5t15.5 65.5t-15.5 42t-36 23.5t-49.5 7.5t-53 -3t-49 -11q-57 -20 -118.5 -56.5t-111.5 -78.5t-82 -82q-50 -63 -34 -96q7 -16 29 -23q53 -17 134 -4l-21 -103
q-127 -42 -221 -115q-154 -120 -143 -281q0 -12 3 -23q20 -95 139 -100q127 -5 290 86q176 99 277 248q27 40 46 81q17 -20 19 -46.5t-12 -49.5q-131 -206 -341 -310q-180 -90 -337 -70q-142 18 -194 120q-27 53 -22 124q3 52 24 102q-26 0 -52 2q-138 -162 -285 -261.5
t-263 -94.5q-29 -1 -51 8l-0.5 0.5t-1.5 0.5v0q-17 8 -29 21q-35 41 -38 106t22 136t75 145t113.5 133.5t145.5 99t164 43.5q82 3 122.5 -36.5t19.5 -100.5q-28 24 -68 26.5t-82.5 -13t-90 -43.5t-91 -66t-84.5 -80t-71.5 -84.5t-51 -80.5t-23.5 -68t11 -47q10 -10 26 -15
h1.5t1 -0.5t1.5 -0.5h2q10 -2 20 -1q22 0 46 4q74 20 174.5 95t203.5 191q-26 9 -42 23q-33 27 -38 58t10 52.5t37.5 34.5t40.5 10q-17 -65 59 -98q15 18 33 41q80 107 172.5 267t145.5 266l52 106h146q-25 -66 -37 -97q111 82 225 104l4 1q2 0 5.5 0.5t5.5 0.5zM1075 370
q-1 0 -2 0.5l-1 0.5q-33 15 -50 44q-20 36 -11 87q6 37 28 78q11 29 16 44q-120 -238 -248 -414q-13 -18 -27 -37q17 -3 32 -4q49 69 128 125q58 42 131 74q0 1 1.5 1.5t2.5 0.5z" />
    <glyph glyph-name="Ccedilla" unicode="&#xc7;" horiz-adv-x="1156" 
d="M975 225q24 0 41.5 -16t23.5 -44t3 -62t-21 -74t-48 -76q-32 -38 -81 -73.5t-107.5 -63.5t-126.5 -41t-129 -3l-8 -23q7 -4 12 -12t8 -16q3 -7 4 -17q3 -32 -30 -70q-14 -17 -28.5 -23t-24.5 -2t-16.5 10.5t-10.5 15.5q-7 15 -5 37v1q1 6 1 8q1 4 3 6q2 3 5 1
q-1 -2 -1 -4q-3 -18 -1.5 -32t7.5 -16q12 -6 32 11t34 43t10 45h-4v-1h-1q-7 -3 -12 -22q-9 13 -8 24.5t10 14.5l8 24q-59 12 -105 46q-111 80 -105 253q-51 0 -99 6q-91 12 -131 52.5t-15 126.5q42 -25 111 -43t151 -22q7 30 16 58t15 42l5 13q33 92 80.5 178.5
t107.5 162.5t126 133t141 89.5t148 32.5q53 0 95 -20t67.5 -54.5t33.5 -83.5t-2.5 -103t-44.5 -115.5t-89 -120.5q-85 -90 -185.5 -158t-204 -108.5t-209.5 -56.5q0 -2 -1 -8.5t-2 -9.5q-7 -61 17 -104t61 -62q31 -16 112 -10q129 9 225 95t142 241zM852 774
q-59 -29 -136 -105t-150 -197q-82 -133 -121 -274q270 28 476 214q170 155 173 273q3 76 -63 105q-65 28 -153 -7q-11 -3 -12 -3q-3 -1 -14 -6z" />
    <glyph glyph-name="Egrave" unicode="&#xc8;" horiz-adv-x="1066" 
d="M761 883q199 35 272 -60q49 -63 25 -151q-21 -75 -79 -108q-45 -26 -94 -9q32 45 49 82.5t19 62t-5.5 42.5t-25 27t-38 14t-45 4t-46.5 -5t-42 -10q-125 -43 -242 -145q-103 -90 -107 -147q-1 -32 32 -44q53 -17 134 -4l-21 -103q-24 -8 -49 -18t-63.5 -29.5t-72.5 -42
t-70 -55t-60.5 -68.5t-38.5 -83.5t-10 -99.5q6 -102 113 -120q114 -19 278 62q176 86 289 230q47 59 75 120q17 -20 19 -46.5t-12 -49.5q-131 -206 -342 -310q-179 -90 -336 -70q-142 18 -194 120q-27 53 -22 124q6 112 93 212t235 165q-36 15 -53 45q-15 30 -14 66
t20.5 77.5t48.5 82t71.5 79.5t88.5 71t99.5 56t105.5 34l4 1q2 0 5.5 0.5t5.5 0.5zM879 920q-32 34 -63.5 46t-51.5 7t-35 -19q-11 13 -11 30.5t8 31.5t26 21t40 0q42 -12 67 -44q24 -32 21 -74v0z" />
    <glyph glyph-name="Eacute" unicode="&#xc9;" horiz-adv-x="1066" 
d="M761 883q199 35 272 -60q49 -63 25 -151q-21 -75 -79 -108q-45 -26 -94 -9q32 45 49 82.5t19 62t-5.5 42.5t-25 27t-38 14t-45 4t-46.5 -5t-42 -10q-125 -43 -242 -145q-103 -90 -107 -147q-1 -32 32 -44q53 -17 134 -4l-21 -103q-24 -8 -49 -18t-63.5 -29.5t-72.5 -42
t-70 -55t-60.5 -68.5t-38.5 -83.5t-10 -99.5q6 -102 113 -120q114 -19 278 62q176 86 289 230q47 59 75 120q17 -20 19 -46.5t-12 -49.5q-131 -206 -342 -310q-179 -90 -336 -70q-142 18 -194 120q-27 53 -22 124q6 112 93 212t235 165q-36 15 -53 45q-15 30 -14 66
t20.5 77.5t48.5 82t71.5 79.5t88.5 71t99.5 56t105.5 34l4 1q2 0 5.5 0.5t5.5 0.5zM798 920l-1 -1v0q-3 42 22 74t67 44q22 7 40 0t26 -21t7.5 -31.5t-11.5 -30.5q-15 14 -34.5 19t-51 -7t-64.5 -46z" />
    <glyph glyph-name="Ecircumflex" unicode="&#xca;" horiz-adv-x="1066" 
d="M761 883q199 35 272 -60q49 -63 25 -151q-21 -75 -79 -108q-45 -26 -94 -9q32 45 49 82.5t19 62t-5.5 42.5t-25 27t-38 14t-45 4t-46.5 -5t-42 -10q-125 -43 -242 -145q-103 -90 -107 -147q-1 -32 32 -44q53 -17 134 -4l-21 -103q-24 -8 -49 -18t-63.5 -29.5t-72.5 -42
t-70 -55t-60.5 -68.5t-38.5 -83.5t-10 -99.5q6 -102 113 -120q114 -19 278 62q176 86 289 230q47 59 75 120q17 -20 19 -46.5t-12 -49.5q-131 -206 -342 -310q-179 -90 -336 -70q-142 18 -194 120q-27 53 -22 124q6 112 93 212t235 165q-36 15 -53 45q-15 30 -14 66
t20.5 77.5t48.5 82t71.5 79.5t88.5 71t99.5 56t105.5 34l4 1q2 0 5.5 0.5t5.5 0.5zM818 970q-10 -4 -31 -11q-22 -5 -33 -6q5 10 20 27q15 16 24 23q22 20 51 38l15 9l13 -10q23 -19 43 -40q24 -28 35 -51q-24 5 -58 21q-16 9 -36 22q-23 -14 -43 -22z" />
    <glyph glyph-name="Edieresis" unicode="&#xcb;" horiz-adv-x="1066" 
d="M761 883q199 35 272 -60q49 -63 25 -151q-21 -75 -79 -108q-45 -26 -94 -9q32 45 49 82.5t19 62t-5.5 42.5t-25 27t-38 14t-45 4t-46.5 -5t-42 -10q-125 -43 -242 -145q-103 -90 -107 -147q-1 -32 32 -44q53 -17 134 -4l-21 -103q-24 -8 -49 -18t-63.5 -29.5t-72.5 -42
t-70 -55t-60.5 -68.5t-38.5 -83.5t-10 -99.5q6 -102 113 -120q114 -19 278 62q176 86 289 230q47 59 75 120q17 -20 19 -46.5t-12 -49.5q-131 -206 -342 -310q-179 -90 -336 -70q-142 18 -194 120q-27 53 -22 124q6 112 93 212t235 165q-36 15 -53 45q-15 30 -14 66
t20.5 77.5t48.5 82t71.5 79.5t88.5 71t99.5 56t105.5 34l4 1q2 0 5.5 0.5t5.5 0.5zM773 949q-15 0 -26 11t-11 26t11 26t26 11t26 -11t11 -26t-11 -26t-26 -11zM905 949q-15 0 -26 11t-11 26t11 26t26 11t26 -11t11 -26t-11 -26t-26 -11z" />
    <glyph glyph-name="Igrave" unicode="&#xcc;" horiz-adv-x="547" 
d="M756 458l-6 -50q-25 -20 -70 -51t-111.5 -75.5t-112.5 -76.5q-28 -87 -48 -156q-44 -136 -110.5 -212t-129.5 -89q-39 -8 -68 5t-41 39t-7.5 63t27.5 74q51 82 252 234q1 3 2 6.5t2 6.5t2 7t2 7t2.5 7t2.5 7q0 1 0.5 3l0.5 2q10 34 20 62q65 204 139 431q2 8 28 86
q4 13 14.5 20.5t22.5 7.5h94h37l-11 -5.5t-24 -24t-30 -51.5q-4 -12 -12 -33q-79 -225 -147 -434q55 38 120 81.5t106.5 71t53.5 37.5zM148 -192q75 25 148 241h-1q7 20 15 48q-158 -126 -204 -215q-8 -20 -7.5 -39.5t14.5 -31t35 -3.5zM665 920q-33 34 -64.5 46t-51 7
t-34.5 -19q-11 13 -11.5 30.5t8 31.5t26 21t40.5 0q42 -12 67 -44q24 -32 21 -74v0z" />
    <glyph glyph-name="Iacute" unicode="&#xcd;" horiz-adv-x="555" 
d="M623 702q-79 -224 -147 -434q55 38 120 81.5t106.5 71t53.5 37.5l-6 -50q-20 -16 -54 -40t-68.5 -46.5t-84 -56.5t-87.5 -60q-28 -87 -48 -156q-44 -136 -110.5 -212t-129.5 -89q-39 -8 -68 5t-41 39t-7.5 63t27.5 74q51 82 252 234q7 22 13 41q0 1 0.5 3l0.5 2
q10 34 20 62q65 204 139 431q2 7 28 86q4 13 14.5 20.5t22.5 7.5h94h37q-2 -1 -4.5 -2t-10.5 -7t-15.5 -14t-17 -23.5t-17.5 -34.5zM148 -192q75 25 148 241h-1q3 9 15 48q-158 -126 -203 -215q-9 -20 -8.5 -39.5t14.5 -31t35 -3.5zM602 920v-1h-1q-3 42 22 74t67 44
q22 7 40 0t26 -21t7.5 -31.5t-10.5 -30.5q-16 14 -35.5 19t-51 -7t-64.5 -46z" />
    <glyph glyph-name="Icircumflex" unicode="&#xce;" horiz-adv-x="547" 
d="M756 458l-6 -50q-20 -16 -54 -40t-68.5 -46.5t-84 -56.5t-87.5 -60q-28 -87 -48 -156q-44 -136 -110.5 -212t-129.5 -89q-39 -8 -68 5t-41 39t-7.5 63t27.5 74q51 82 252 234q0 1 5 17t8 24q0 1 0.5 3l0.5 2q10 34 20 62q65 204 139 431q2 7 28 86q4 13 14.5 20.5
t22.5 7.5h94h37q-2 -1 -4.5 -2t-10.5 -7t-15.5 -14t-17 -23.5t-17.5 -34.5q-4 -12 -12 -33q-79 -225 -147 -434q44 30 94 64t84 56.5t63 42t39 27.5zM148 -192q75 25 148 241h-1q7 20 15 48q-158 -126 -203 -215q-9 -20 -8.5 -39.5t14.5 -31t35 -3.5zM592 970
q-10 -4 -31 -11q-23 -5 -34 -6q6 10 21 27q15 16 23 23q22 20 51 38l15 9l13 -10q24 -19 43 -40q25 -28 36 -51q-25 5 -58 21q-17 9 -37 22q-23 -14 -42 -22z" />
    <glyph glyph-name="Idieresis" unicode="&#xcf;" horiz-adv-x="547" 
d="M756 458l-6 -50q-20 -16 -54 -40t-68.5 -46.5t-84 -56.5t-87.5 -60q-28 -87 -48 -156q-44 -136 -110.5 -212t-129.5 -89q-39 -8 -68 5t-41 39t-7.5 63t27.5 74q51 82 252 234q7 22 13 41q0 1 0.5 3l0.5 2q10 34 20 62q65 206 139 431q2 7 28 86q4 13 14.5 20.5t22.5 7.5
h94h37q-2 -1 -4.5 -2t-10.5 -7t-15.5 -14t-17 -23.5t-17.5 -34.5l-12 -33q-79 -225 -147 -434q55 38 120 81.5t106.5 71t53.5 37.5zM148 -192q75 25 148 241q2 9 14 48q-158 -126 -203 -215q-9 -20 -8.5 -39.5t14.5 -31t35 -3.5zM576.5 949q-15.5 0 -26.5 11t-11 26t11 26
t26.5 11t26 -11t10.5 -26t-10.5 -26t-26 -11zM708.5 949q-15.5 0 -26.5 11t-11 26t11 26t26.5 11t26 -11t10.5 -26t-10.5 -26t-26 -11z" />
    <glyph glyph-name="Ntilde" unicode="&#xd1;" horiz-adv-x="995" 
d="M1085 735q-17 -46 -65 -173q-186 -512 -173 -704q-16 -3 -33 -3t-32 15.5t-18 45.5q-4 14 -2 50t6 77.5t17 106t31 135t48 164.5t68 194q9 25 25 67q-80 -67 -202.5 -256t-222.5 -382.5t-139 -305.5q-69 -10 -92 23.5t-3 113.5q7 28 42 146q76 247 209 653q2 6 8 27
q-45 -2 -88.5 -16t-82 -37t-71.5 -54t-59 -69q-50 -72 -78 -149t-25 -146t44 -106q-54 -27 -95.5 4.5t-50.5 106.5q-8 93 29.5 191.5t108.5 180.5q78 91 180.5 136t242.5 45h1h1h94h37l-11 -5.5t-24 -24t-30 -51.5q-4 -12 -12 -33q-129 -367 -209 -632q90 175 190 338.5
t197.5 282.5t148.5 121v0h1v0h38q30 0 46 -24t5 -53zM851 950q-27 7 -33 33.5t15 37.5q6 -14 17 -21.5t31 -9t47 11.5q48 28 72 21q27 -7 34 -35t-15 -39q-6 14 -16.5 22.5t-31 12t-46.5 -10.5q-52 -29 -74 -23z" />
    <glyph glyph-name="Ograve" unicode="&#xd2;" horiz-adv-x="890" 
d="M723 692q54 -48 83 -116.5t32.5 -142.5t-8 -145.5t-36.5 -139.5q-39 -105 -88 -182t-100 -120t-100.5 -63t-99.5 -20q-54 1 -98 34.5t-68.5 86.5t-35.5 114.5t-6 119.5q15 158 91.5 282.5t205.5 186.5q28 14 60 11t55 -24q5 -4 7 -7q-86 -40 -150.5 -100.5t-99.5 -127.5
t-53 -139t-15 -137.5t18.5 -119.5t42.5 -87q62 -79 162.5 30t157.5 265q37 101 50.5 196.5t-4.5 175t-72 111.5q-60 38 -124 33t-124.5 -36t-113 -82t-90.5 -106.5t-57.5 -110t-12.5 -91.5q-42 17 -62.5 54t-19.5 83t18 96.5t50.5 99.5t77.5 87q52 44 123.5 71t144 32.5
t142.5 -13t117 -59.5zM534 920q-32 34 -63.5 46t-51.5 7t-35 -19q-11 13 -11 30.5t8 31.5t26 21t40 0q42 -12 67 -44q24 -32 21 -74z" />
    <glyph glyph-name="Oacute" unicode="&#xd3;" horiz-adv-x="890" 
d="M723 692q54 -48 83 -116.5t32.5 -142.5t-8 -145.5t-36.5 -139.5q-39 -105 -88 -182t-100 -120t-100.5 -63t-99.5 -20q-54 1 -98 34.5t-68.5 86.5t-35.5 114.5t-6 119.5q15 158 91.5 282.5t205.5 186.5q28 14 60 11t55 -24q5 -4 7 -7q-86 -40 -150.5 -100.5t-99.5 -127.5
t-53 -139t-15 -137.5t18.5 -119.5t42.5 -87q58 -74 158 26q84 84 147 231l15 38q37 101 50.5 196.5t-4.5 175t-72 111.5q-60 38 -124 33t-124.5 -36t-113 -82t-90.5 -106.5t-57.5 -110t-12.5 -91.5q-42 17 -62.5 54t-19.5 83t18 96.5t50.5 99.5t77.5 87q52 44 123.5 71
t144 32.5t142.5 -13t117 -59.5zM492 920l-1 -1v0q-3 42 21 74q26 32 68 44q22 7 40 0t26 -21t7.5 -31.5t-11.5 -30.5q-8 8 -18.5 13t-25 6.5t-30.5 -3t-36 -17t-40 -33.5z" />
    <glyph glyph-name="Ocircumflex" unicode="&#xd4;" horiz-adv-x="890" 
d="M723 692q54 -48 83 -116.5t32.5 -142.5t-8 -145.5t-36.5 -139.5q-39 -105 -88 -182t-100 -120t-100.5 -63t-99.5 -20q-54 1 -98 34.5t-68.5 86.5t-35.5 114.5t-6 119.5q15 158 91.5 282.5t205.5 186.5q28 14 60 11t55 -24q5 -4 7 -7q-86 -40 -150.5 -100.5t-99.5 -127.5
t-53 -139t-15 -137.5t18.5 -119.5t42.5 -87q62 -79 162.5 30t157.5 265q37 101 50.5 196.5t-4.5 175t-72 111.5q-60 38 -124 33t-124.5 -36t-113 -82t-90.5 -106.5t-57.5 -110t-12.5 -91.5q-42 17 -62.5 54t-19.5 83t18 96.5t50.5 99.5t77.5 87q52 44 123.5 71t144 32.5
t142.5 -13t117 -59.5zM463 970q-10 -4 -31 -11q-22 -5 -33 -6q5 10 20 27q15 16 24 23q22 20 51 38l15 9l13 -10q23 -19 43 -40q24 -28 35 -51q-24 5 -58 21q-16 9 -36 22q-24 -14 -43 -22z" />
    <glyph glyph-name="Otilde" unicode="&#xd5;" horiz-adv-x="890" 
d="M723 692q54 -48 83 -116.5t32.5 -142.5t-8 -145.5t-36.5 -139.5q-39 -105 -88 -182t-100 -120t-100.5 -63t-99.5 -20q-54 1 -98 34.5t-68.5 86.5t-35.5 114.5t-6 119.5q15 158 91.5 282.5t205.5 186.5q28 14 60 11t55 -24q5 -4 7 -7q-86 -40 -150.5 -100.5t-99.5 -127.5
t-53 -139t-15 -137.5t18.5 -119.5t42.5 -87q62 -79 162.5 30t157.5 265q37 101 50.5 196.5t-4.5 175t-72 111.5q-60 38 -124 33t-124.5 -36t-113 -82t-90.5 -106.5t-57.5 -110t-12.5 -91.5q-42 17 -62.5 54t-19.5 83t18 96.5t50.5 99.5t77.5 87q52 44 123.5 71t144 32.5
t142.5 -13t117 -59.5zM418 950q-28 7 -34 33.5t15 37.5q6 -14 17.5 -21.5t31.5 -9t46 11.5q48 28 72 21q28 -7 34.5 -35t-14.5 -39q-7 14 -17.5 22.5t-30.5 12t-47 -10.5q-51 -29 -73 -23z" />
    <glyph glyph-name="Odieresis" unicode="&#xd6;" horiz-adv-x="890" 
d="M723 692q54 -48 83 -116.5t32.5 -142.5t-8 -145.5t-36.5 -139.5q-39 -105 -88 -182t-100 -120t-100.5 -63t-99.5 -20q-54 1 -98 34.5t-68.5 86.5t-35.5 114.5t-6 119.5q15 158 91.5 282.5t205.5 186.5q28 14 60 11t55 -24q5 -4 7 -7q-86 -40 -150.5 -100.5t-99.5 -127.5
t-53 -139t-15 -137.5t18.5 -119.5t42.5 -87q62 -79 162.5 30t157.5 265q37 101 50.5 196.5t-4.5 175t-72 111.5q-60 38 -124 33t-124.5 -36t-113 -82t-90.5 -106.5t-57.5 -110t-12.5 -91.5q-42 17 -62.5 54t-19.5 83t18 96.5t50.5 99.5t77.5 87q69 59 168.5 86.5t198 13.5
t160.5 -69zM359.5 949q-15.5 0 -26.5 11t-11 26t11 26t26.5 11t26 -11t10.5 -26t-10.5 -26t-26 -11zM491.5 949q-15.5 0 -26 11t-10.5 26t10.5 26t26 11t26.5 -11t11 -26t-11 -26t-26.5 -11z" />
    <glyph glyph-name="multiply" unicode="&#xd7;" horiz-adv-x="749" 
d="M699 497l-255 -227l190 -226l-79 -70l-189 227l-253 -227l-63 74l253 227l-189 226l79 69l189 -226l253 226z" />
    <glyph glyph-name="Oslash" unicode="&#xd8;" horiz-adv-x="981" 
d="M931 680l-114 -134q20 -60 22.5 -132t-10 -137.5t-35.5 -128.5q-39 -105 -88 -182t-100 -120t-100.5 -63t-99.5 -20q-104 1 -163 116l-81 -93l-71 -3l129 150q-30 91 -22 185q15 158 91.5 282.5t205.5 186.5q28 14 60 11t55 -24q5 -4 7 -7q-74 -34 -132.5 -84t-94.5 -105
t-58 -117.5t-29 -120t-2 -113.5l426 493q-19 82 -73 114q-60 38 -124 32.5t-124.5 -36t-113 -81.5t-90.5 -106.5t-57.5 -110t-12.5 -91.5q-42 17 -62.5 54t-19.5 83t18 96.5t50.5 99.5t77.5 87q69 59 168.5 86.5t198 13.5t160.5 -70q43 -38 72 -92l74 86zM680 151
q61 165 55 301l-423 -492q16 -65 48 -104q62 -79 162.5 30t157.5 265z" />
    <glyph glyph-name="Ugrave" unicode="&#xd9;" horiz-adv-x="920" 
d="M1049 770q-4 -1 -10 -4.5t-22 -22.5t-27 -46q-95 -275 -188.5 -579t-84.5 -353q-46 -6 -71.5 6.5t-31.5 45.5t7 86q9 35 57 191q-29 -51 -56.5 -90.5t-50 -65t-45 -43t-38.5 -26t-34 -11.5t-29.5 -2.5t-26.5 2.5q-72 11 -82 129.5t34 304t131 424.5q-68 -18 -125.5 -60.5
t-99.5 -102.5q-50 -72 -78 -149t-25 -146t44 -106q-54 -27 -95.5 4.5t-50.5 106.5q-8 93 29.5 191.5t108.5 180.5q76 88 174 133t231 47l42 3q-89 -239 -141.5 -416.5t-64.5 -287.5t28 -121q37 -13 83.5 32t98 137.5t104.5 213.5t110 274q19 59 31 95q3 10 17.5 17.5
t27.5 7.5h119zM778 920q-33 34 -64.5 46t-51 7t-34.5 -19q-11 13 -11.5 30.5t7.5 31.5t26 21t40 0q42 -12 67 -44t22 -74z" />
    <glyph glyph-name="Uacute" unicode="&#xda;" horiz-adv-x="920" 
d="M1049 770q-1 0 -3.5 -1.5t-9.5 -6.5t-14 -12.5t-16 -21.5t-16 -31q-95 -275 -188.5 -579t-84.5 -353q-46 -6 -71.5 6.5t-31.5 45.5t7 86q9 35 57 191q-25 -44 -49.5 -80.5t-45.5 -61t-40 -43t-36.5 -29t-31.5 -16.5t-29 -7.5t-25 -1t-23 2.5q-73 11 -82.5 129.5t34.5 304
t131 424.5q-68 -18 -125.5 -60.5t-99.5 -102.5q-50 -72 -78 -149t-25 -146t44 -106q-54 -27 -95.5 4.5t-50.5 106.5q-8 93 29.5 191.5t108.5 180.5q76 88 174 133t231 47l42 3q-89 -239 -141.5 -416.5t-64.5 -287.5t28 -121q37 -13 83.5 32t98 137.5t104.5 213.5t110 274
q19 59 31 95q3 10 17.5 17.5t27.5 7.5h119zM707 920v-1v0q-4 42 21 74t67 44q19 5 33.5 2t24 -13t14 -22t2 -25.5t-10.5 -24.5q-15 14 -35 19t-51.5 -7t-64.5 -46z" />
    <glyph glyph-name="Ucircumflex" unicode="&#xdb;" horiz-adv-x="920" 
d="M1049 770q-1 0 -3.5 -1.5t-9.5 -6.5t-14 -12.5t-16 -21.5t-16 -31q-95 -275 -188.5 -579t-84.5 -353q-46 -6 -71.5 6.5t-31.5 45.5t7 86q9 35 57 191q-29 -51 -56.5 -90.5t-50 -65t-45 -43t-38.5 -26t-34.5 -11.5t-29.5 -2.5t-26 2.5q-73 11 -82.5 129.5t34.5 304
t131 424.5q-34 -9 -66 -24.5t-60 -36.5t-53 -47t-46 -55q-50 -72 -78 -149t-25 -146t44 -106q-54 -27 -95.5 4.5t-50.5 106.5q-8 93 29.5 191.5t108.5 180.5q76 88 174 133t231 47l42 3q-89 -239 -141.5 -416.5t-64.5 -287.5t28 -121q37 -13 83.5 32t98 137.5t104.5 213.5
t110 274q19 59 31 95q3 10 17.5 17.5t27.5 7.5h119zM778 970q-10 -4 -30 -11q-23 -5 -34 -6q6 10 21 27q15 16 23 23q22 20 51 38l15 9l13 -10q24 -19 43 -40q25 -28 36 -51q-25 5 -58 21q-17 9 -37 22q-23 -14 -43 -22z" />
    <glyph glyph-name="Udieresis" unicode="&#xdc;" horiz-adv-x="920" 
d="M1049 770q-4 -1 -10 -4.5t-22 -22.5t-27 -46q-95 -275 -188.5 -579t-84.5 -353q-46 -6 -71.5 6.5t-31.5 45.5t7 86q9 35 57 191q-29 -51 -56.5 -90.5t-50 -65t-45 -43t-38.5 -26t-34 -11.5t-29.5 -2.5t-26.5 2.5q-72 11 -82 129.5t34 304t131 424.5q-68 -18 -125.5 -60.5
t-99.5 -102.5q-50 -72 -78 -149t-25 -146t44 -106q-54 -27 -95.5 4.5t-50.5 106.5q-8 93 29.5 191.5t108.5 180.5q76 88 174 133t231 47l42 3q-89 -239 -141.5 -416.5t-64.5 -287.5t28 -121q37 -13 83.5 32t98 137.5t104.5 213.5t110 274q19 59 31 95q3 10 17.5 17.5
t27.5 7.5h119zM728.5 949q-15.5 0 -26 11t-10.5 26t10.5 26t26 11t26 -11t10.5 -26t-10.5 -26t-26 -11zM860.5 949q-15.5 0 -26 11t-10.5 26t10.5 26t26 11t26.5 -11t11 -26t-11 -26t-26.5 -11z" />
    <glyph glyph-name="Yacute" unicode="&#xdd;" horiz-adv-x="972" 
d="M1167 458l-7 -50q-24 -20 -69 -51t-111.5 -75.5t-112.5 -76.5q-29 -89 -49 -156q-43 -136 -109.5 -212t-129.5 -89q-40 -8 -69 5t-40.5 39t-7.5 63t27 74q51 82 253 234q0 2 1 5t2 5t1.5 5t1.5 5q2 6 8 26q15 51 28 85q4 12 12 38q-102 -169 -183.5 -228t-155.5 -39
q-69 19 -79 110t30.5 229t125.5 323q-83 -10 -155.5 -56t-122.5 -118t-78 -149t-25 -146t44 -106q-54 -27 -95.5 4.5t-50.5 106.5q-8 93 29.5 191.5t108.5 180.5q78 91 180.5 136t242.5 45q6 1 10 1l74 4q-67 -141 -112.5 -253t-70.5 -197t-24 -136t28 -64q30 -14 63 0.5
t71 63.5t69.5 97.5t76.5 139t73 150t76 165.5q9 27 13 40q4 11 11.5 19.5t18 13.5t21.5 5h85h48l-5 -2.5t-13.5 -9t-20.5 -18t-22.5 -30t-23.5 -43.5q0 -1 -5 -13v-1q-114 -324 -165 -479q36 25 75.5 51.5t70 47.5t58 39t47 31.5t28.5 19.5zM559 -192q74 25 147 241
q7 23 15 48q-158 -126 -204 -215q-8 -20 -7.5 -39.5t14 -31t35.5 -3.5zM815 920l-1 -1v0q-3 42 21 74q25 32 67 44q23 7 40.5 0t26 -21t8 -31.5t-11.5 -30.5q-15 14 -34.5 19t-51 -7t-64.5 -46z" />
    <glyph glyph-name="agrave" unicode="&#xe0;" 
d="M460 233h41l-181 -232q-21 -5 -49 -1q-42 6 -46.5 51t21.5 123q-36 -65 -67 -104.5t-59 -57t-58 -19.5q-10 0 -21 1.5t-24.5 8.5t-24 18.5t-17 32.5t-5.5 49.5t12 71.5t34 95q28 65 61 108.5t62 62t57 23t47.5 -1t31.5 -16.5q35 -31 33 -81q14 30 28 59v1q4 11 6 16
q4 11 13.5 17.5t20.5 6.5h79h32q-4 -1 -10.5 -4.5t-22.5 -23.5t-28 -50q-61 -161 -76 -205l-0.5 -1.5l-0.5 -1.5q-7 -21 -12 -39q-2 -5 -3 -9q-2 -10 -5 -24q-2 -5 -2 -9q-5 -21 -7 -42q95 114 140 177zM78 48q37 -42 138 138q26 46 57 106q9 40 8.5 65t-7 37t-17.5 14
q-32 4 -70 -39t-74 -122q-22 -49 -33 -93t-10.5 -70t8.5 -36zM371 548q-33 34 -64.5 46t-51 7t-34.5 -19q-11 13 -11.5 30.5t7.5 31.5t26 21t40 0q42 -12 67 -45q25 -31 22 -73z" />
    <glyph glyph-name="aacute" unicode="&#xe1;" 
d="M460 233h41l-181 -232q-21 -5 -49 -1q-42 6 -46.5 51t21.5 123q-36 -65 -67 -104.5t-59 -57t-58 -19.5q-10 0 -21 1.5t-24.5 8.5t-24 18.5t-17 32.5t-5.5 49.5t12 71.5t34 95q28 65 61 108.5t62 62t57 23t47.5 -1t31.5 -16.5q35 -31 33 -81q14 30 28 59v1q4 11 6 16
q4 11 13.5 17.5t20.5 6.5h79h32q-4 -1 -10.5 -4.5t-22.5 -23.5t-28 -50q-61 -161 -76 -205v-2l-1 -1q-7 -21 -12 -39q-2 -5 -3 -9q-2 -10 -5 -24q-2 -5 -2 -9q-5 -21 -7 -42q95 114 140 177zM78 48q37 -42 138 138q26 46 57 106q9 40 8.5 65t-7 37t-17.5 14q-32 4 -70 -39
t-74 -122q-22 -49 -33 -93t-10.5 -70t8.5 -36zM247 548l-1 -2v1q-3 42 22 73q25 33 67 45q22 7 40 0t26 -21t7.5 -31.5t-11.5 -30.5q-15 14 -34.5 19t-51 -7t-64.5 -46z" />
    <glyph glyph-name="acircumflex" unicode="&#xe2;" 
d="M460 233h41l-181 -232q-21 -5 -49 -1q-42 6 -46.5 51t21.5 123q-36 -65 -67 -104.5t-59 -57t-58 -19.5q-10 0 -21 1.5t-24.5 8.5t-24 18.5t-17 32.5t-5.5 49.5t12 71.5t34 95q28 65 61 108.5t62 62t57 23t47.5 -1t31.5 -16.5q35 -31 33 -81q14 31 28 59v1q4 11 6 16
q4 11 13.5 17.5t20.5 6.5h79h32q-4 -1 -10.5 -4.5t-22.5 -23.5t-28 -50q-61 -161 -76 -205l-0.5 -1.5l-0.5 -1.5q-7 -21 -12 -39q-2 -5 -3 -9q-2 -10 -5 -24q-2 -5 -2 -9q-5 -21 -7 -42q95 114 140 177zM78 48q37 -42 138 138q26 46 57 106q6 29 8 51.5t-1.5 35.5t-9 20.5
t-13.5 8.5q-32 4 -70 -39t-74 -122q-22 -49 -33 -93t-10.5 -70t8.5 -36zM305 598q-11 -4 -31 -11q-23 -5 -34 -6q6 9 21 27q15 16 23 23q22 20 52 38l14 9l13 -11q24 -18 43 -40q25 -28 36 -50q-25 5 -58 21q-17 8 -37 22q-23 -14 -42 -22z" />
    <glyph glyph-name="atilde" unicode="&#xe3;" 
d="M460 233h41l-181 -232q-21 -5 -49 -1q-42 6 -46.5 51t21.5 123q-36 -65 -67 -104.5t-59 -57t-58 -19.5q-10 0 -21 1.5t-24.5 8.5t-24 18.5t-17 32.5t-5.5 49.5t12 71.5t34 95q28 65 61 108.5t62 62t57 23t47.5 -1t31.5 -16.5q35 -31 33 -81q14 31 28 59v1q4 11 6 16
q4 11 13.5 17.5t20.5 6.5h79h32q-4 -1 -10.5 -4.5t-22.5 -23.5t-28 -50q-61 -161 -76 -205v-2l-1 -1q-7 -21 -12 -39q-2 -5 -3 -9q-2 -10 -5 -24q-2 -5 -2 -9q-5 -21 -7 -42q95 114 140 177zM78 48q37 -42 138 138q26 46 57 106q6 29 8 51.5t-1.5 35.5t-9 20.5t-13.5 8.5
q-32 4 -70 -39t-74 -122q-22 -49 -33 -93t-10.5 -70t8.5 -36zM259 578q-28 7 -34 33t15 37q6 -13 17 -20.5t31 -9.5t47 12q48 27 72 21q28 -7 34.5 -35t-14.5 -39q-7 13 -17.5 22t-30.5 12.5t-47 -10.5q-51 -29 -73 -23z" />
    <glyph glyph-name="adieresis" unicode="&#xe4;" 
d="M460 233h41l-181 -232q-21 -5 -49 -1q-42 6 -46.5 51t21.5 123q-36 -65 -67 -104.5t-59 -57t-58 -19.5q-10 0 -21 1.5t-24.5 8.5t-24 18.5t-17 32.5t-5.5 49.5t12 71.5t34 95q28 65 61 108.5t62 62t57 23t47.5 -1t31.5 -16.5q35 -31 33 -81q14 31 28 59v1q4 11 6 16
q4 11 13.5 17.5t20.5 6.5h79h32q-4 -1 -10.5 -4.5t-22.5 -23.5t-28 -50q-61 -161 -76 -205l-0.5 -1.5l-0.5 -1.5q-7 -21 -12 -39q-2 -5 -3 -9q-2 -10 -5 -24q-2 -5 -2 -9q-5 -21 -7 -42q95 114 140 177zM78 48q37 -42 138 138q26 46 57 106q6 29 8 51.5t-1.5 35.5t-9 20.5
t-13.5 8.5q-32 4 -70 -39t-74 -122q-22 -49 -33 -93t-10.5 -70t8.5 -36zM272.5 577q-15.5 0 -26.5 11t-11 26t11 26t26.5 11t26 -11t10.5 -26t-10.5 -26t-26 -11zM404.5 577q-15.5 0 -26 11t-10.5 26t10.5 26t26 11t26.5 -11t11 -26t-11 -26t-26.5 -11z" />
    <glyph glyph-name="aring" unicode="&#xe5;" 
d="M460 233h41l-181 -232q-21 -5 -49 -1q-42 6 -46.5 51t21.5 123q-36 -65 -67 -104.5t-59 -57t-58 -19.5q-10 0 -21 1.5t-24.5 8.5t-24 18.5t-17 32.5t-5.5 49.5t12 71.5t34 95q28 65 61 108.5t62 62t57 23t47.5 -1t31.5 -16.5q35 -31 33 -81q14 30 28 59v1q4 11 6 16
q4 11 13.5 17.5t20.5 6.5h79h32q-4 -1 -10.5 -4.5t-22.5 -23.5t-28 -50q-61 -161 -76 -205l-0.5 -1.5l-0.5 -1.5q-7 -21 -12 -39q-2 -5 -3 -9q-2 -10 -5 -24q-2 -5 -2 -9q-5 -21 -7 -42q95 114 140 177zM78 48q37 -42 138 138q26 46 57 106q9 40 8.5 65t-7 37t-17.5 14
q-32 4 -70 -39t-74 -122q-22 -49 -33 -93t-10.5 -70t8.5 -36zM316 564q-28 0 -48 20t-20 48q0 19 9 34.5t24.5 24.5t34.5 9q28 0 47.5 -20t19.5 -48t-19.5 -48t-47.5 -20zM315.5 675q-17.5 0 -30 -12.5t-12.5 -30t12.5 -30t30 -12.5t30 12.5t12.5 30t-12.5 30t-30 12.5z" />
    <glyph glyph-name="ae" unicode="&#xe6;" horiz-adv-x="569" 
d="M576 233h38q-36 -45 -71.5 -83.5t-77 -75.5t-83 -59t-75.5 -22q-11 0 -22 2t-26 10t-25.5 21.5t-16 38.5t-1.5 58q-43 -68 -79 -98t-75 -32q-10 0 -21 1.5t-24.5 8.5t-24 18.5t-17 32.5t-5.5 49.5t12 71.5t34 95q28 65 61 109t62 62t57.5 22.5t47.5 -1t32 -16.5
q34 -31 32 -81v-4q30 45 64 71q30 23 62 30t53 1.5t35 -16.5q46 -37 32 -100q-11 -52 -61 -87t-146 -37q-18 -43 -25.5 -80t-6 -58t9.5 -30q25 -31 102.5 26.5t148.5 151.5zM78 48q37 -42 138 138q17 30 36 65v1q1 3 3.5 9.5t4.5 8.5q6 16 15 34q10 54 4 78t-22 26
q-32 4 -70 -39t-74 -122q-22 -49 -33 -93t-10.5 -70t8.5 -36zM501 408q-31 4 -68 -36.5t-72 -115.5q45 0 78.5 11t50.5 27.5t25 31t10 27.5q3 24 -4.5 38.5t-19.5 16.5z" />
    <glyph glyph-name="ccedilla" unicode="&#xe7;" horiz-adv-x="329" 
d="M81 55q25 -31 102.5 26.5t148.5 151.5h38q-48 -60 -94.5 -108t-104 -88t-102.5 -43l-4 -12q6 -3 11 -10t8 -14t4 -15q3 -28 -29 -62q-18 -19 -35 -21.5t-26.5 4.5t-14.5 18q-7 13 -5 32v2q1 5 1 7q1 3 2 5q3 2 5 1q0 -1 -1 -4q-6 -37 6 -42q19 -8 49 27t24 60h-4v-1h-1
q-7 -3 -11 -19q-9 11 -7.5 21.5t8.5 12.5h1l3 10q-17 1 -31.5 7t-30 24.5t-20.5 46.5t5.5 79.5t39.5 118.5q25 60 56 102t58 61.5t54.5 27t47.5 4.5t36 -12q14 27 31 46h108q-23 -15 -45 -38.5t-36.5 -47t-25.5 -45.5t-16.5 -37t-5.5 -20q-52 20 -29 97q-21 -1 -44 -20.5
t-46.5 -55.5t-45.5 -85t-32.5 -91.5t-9 -66.5t9.5 -34z" />
    <glyph glyph-name="egrave" unicode="&#xe8;" horiz-adv-x="327" 
d="M332 233h38q-36 -45 -71.5 -83.5t-77 -75.5t-83 -59t-75.5 -22q-10 0 -20.5 2t-24.5 9t-24.5 18t-17.5 32.5t-6 49.5t12 71t34 95q23 55 50 94.5t52.5 60t50.5 31t46 10t36.5 -5.5t26.5 -13q46 -37 32 -100q-11 -52 -61 -87t-146 -37q-17 -43 -24.5 -79.5t-6.5 -58
t9 -30.5q25 -31 102.5 26.5t148.5 151.5zM257 408q-16 2 -33.5 -7.5t-35 -29t-36 -49t-35.5 -66.5q45 0 78.5 11t50.5 27.5t25 31t10 27.5q3 24 -4.5 38.5t-19.5 16.5zM274 548q-33 34 -64.5 46t-51 7t-34.5 -19q-11 13 -11.5 30.5t7.5 31.5t26 21t40 0q42 -12 68 -45
q24 -31 21 -73z" />
    <glyph glyph-name="eacute" unicode="&#xe9;" horiz-adv-x="358" 
d="M97 55q25 -31 102.5 26.5t148.5 151.5h38q-36 -45 -71.5 -83.5t-77 -75.5t-83 -59t-75.5 -22q-11 0 -21 2t-24 9t-24.5 18t-17.5 32.5t-6.5 49.5t12 71t33.5 95q28 65 61.5 108.5t62.5 61.5t58 23t48.5 -0.5t32.5 -15.5q46 -37 32 -100q-11 -52 -61 -87t-146 -37
q-17 -43 -25 -79.5t-6.5 -58t9.5 -30.5zM273 408q-31 4 -68 -36.5t-72 -115.5q45 0 78.5 11t50.5 27.5t25 31t10 27.5q3 24 -5 38.5t-19 16.5zM169 548l-1 -1q-3 42 21 73q25 33 67 45q22 7 40 0t26 -21t8 -31.5t-11 -30.5q-15 14 -35 19t-51.5 -7t-63.5 -46z" />
    <glyph glyph-name="ecircumflex" unicode="&#xea;" horiz-adv-x="327" 
d="M332 233h38q-36 -45 -71.5 -83.5t-77 -75.5t-83 -59t-75.5 -22q-10 0 -20.5 2t-24.5 9t-24.5 18t-17.5 32.5t-6 49.5t12 71t34 95q23 55 50 94.5t52.5 60t50.5 31t46 10t36.5 -5.5t26.5 -13q46 -37 32 -100q-11 -52 -61 -87t-146 -37q-17 -43 -24.5 -79.5t-6.5 -58
t9 -30.5q25 -31 102.5 26.5t148.5 151.5zM257 408q-31 4 -68 -36.5t-72 -115.5q45 0 78.5 11t50.5 27.5t25 31t10 27.5q3 24 -4.5 38.5t-19.5 16.5zM164 598q-10 -4 -31 -11q-22 -5 -33 -6q5 10 20 27q15 16 24 23q22 20 51 38l15 9l13 -11q24 -18 43 -40q24 -28 35 -50
q-24 5 -58 21q-16 8 -36 22q-24 -14 -43 -22z" />
    <glyph glyph-name="edieresis" unicode="&#xeb;" horiz-adv-x="327" 
d="M332 233h38q-36 -45 -71.5 -83.5t-77 -75.5t-83 -59t-75.5 -22q-10 0 -20.5 2t-24.5 9t-24.5 18t-17.5 32.5t-6 49.5t12 71t34 95q23 55 50 94.5t52.5 60t50.5 31t46 10t36.5 -5.5t26.5 -13q46 -37 32 -100q-11 -52 -61 -87t-146 -37q-17 -43 -24.5 -79.5t-6.5 -58
t9 -30.5q25 -31 102.5 26.5t148.5 151.5zM257 408q-21 3 -44.5 -14.5t-48 -52.5t-47.5 -85q45 0 78.5 11t50.5 27.5t25 31t10 27.5q3 24 -4.5 38.5t-19.5 16.5zM146 577q-16 0 -26.5 11t-10.5 26t10.5 26t26 11t26.5 -11t11 -26q0 -8 -3 -14.5t-8 -11.5t-12 -8t-14 -3z
M277.5 577q-15.5 0 -26 11t-10.5 26t10.5 26t26 11t26.5 -11t11 -26t-11 -26t-26.5 -11z" />
    <glyph glyph-name="igrave" unicode="&#xec;" horiz-adv-x="133" 
d="M197 233h42l-182 -232q-21 -5 -49 -1q-59 8 -43 100q11 65 91 278q15 41 23 63q3 7 8 12.5t12 8.5t14 3h80q-14 -37 -42 -109.5t-43.5 -115.5t-26.5 -76l-1 -4q-14 -44 -18 -70v-3q-3 -14 -5 -31q96 113 140 177zM187 548q-33 34 -64.5 46t-51 7t-34.5 -19
q-11 13 -11.5 30.5t8 31.5t26 21t40.5 0q42 -12 67 -45q24 -31 21 -73z" />
    <glyph glyph-name="iacute" unicode="&#xed;" horiz-adv-x="177" 
d="M57 56q96 114 140 177h42l-182 -232q-21 -5 -49 -1q-59 8 -43 100q11 65 91 278q15 41 23 63q3 7 8 12.5t12 8.5t14 3h80q-14 -37 -42 -109.5t-43.5 -115.5t-26.5 -76l-1 -4q-14 -44 -18 -70v-3q-3 -14 -5 -31zM208 665q23 7 40.5 0t26 -21t8 -31.5t-11.5 -30.5
q-15 14 -34.5 19t-51 -7t-64.5 -46l-1 -1q-3 42 21 73q25 33 67 45z" />
    <glyph glyph-name="icircumflex" unicode="&#xee;" horiz-adv-x="163" 
d="M57 56q96 114 140 177h42l-182 -232q-21 -5 -49 -1q-59 8 -43 100q11 65 91 278q15 41 23 63q3 7 8 12.5t12 8.5t14 3h80q-14 -37 -42 -109.5t-43.5 -115.5t-26.5 -76l-1 -4q-14 -44 -18 -70v-3q-3 -14 -5 -31zM132 598q-10 -4 -31 -11q-23 -5 -34 -6q6 10 21 27
q15 16 23 23q23 20 52 38l14 9l13 -11q24 -18 43 -40q25 -28 36 -50q-25 5 -58 21q-17 8 -37 22q-23 -14 -42 -22z" />
    <glyph glyph-name="idieresis" unicode="&#xef;" horiz-adv-x="153" 
d="M57 56q96 114 140 177h42l-182 -232q-21 -5 -49 -1q-59 8 -43 100q11 65 91 278q15 41 23 63q3 7 8 12.5t12 8.5t14 3h80q-14 -37 -42 -109.5t-43.5 -115.5t-26.5 -76l-1 -4q-14 -44 -18 -70v-3q-3 -14 -5 -31zM90 577q-10 0 -18.5 5t-13.5 13.5t-5 18.5q0 15 10.5 26
t26 11t26.5 -11t11 -26t-11 -26t-26 -11zM222 651q15 0 26 -11t11 -26t-11 -26t-26.5 -11t-26 11t-10.5 26q0 8 3 14.5t8 11.5t11.5 8t14.5 3z" />
    <glyph glyph-name="ntilde" unicode="&#xf1;" horiz-adv-x="443" 
d="M444 233h43l-182 -232q-21 -5 -49 -1q-59 8 -43 100q11 65 91 279l6 15q-71 -81 -165 -233.5t-109 -232.5v0q-68 -10 -87 24t2 114q17 70 114 374q1 3 3 6t4 5.5t4.5 5t5 4t5.5 3t6.5 2t6.5 0.5h115q-2 -1 -4.5 -2t-9.5 -6t-14 -12.5t-16 -22t-16 -31.5
q-54 -167 -85 -278q31 58 73 122.5t80.5 114t70 82t42.5 32.5h60q17 0 26 -13t3 -29q-75 -197 -91 -244q-3 -8 -5 -18q-4 -11 -6 -17q0 -1 -1 -5q-7 -25 -11 -47q-3 -17 -5 -35q94 113 138 176zM216 578q-27 7 -33.5 33t15.5 37q6 -13 17 -20.5t31 -9.5t47 12q48 27 72 21
q27 -7 34 -35t-15 -39q-6 13 -17 22t-31 12.5t-47 -10.5q-51 -29 -73 -23z" />
    <glyph glyph-name="ograve" unicode="&#xf2;" horiz-adv-x="370" 
d="M302 241q39 -6 81 -2l-9 -30q-42 -4 -82 2q-9 -21 -10 -24q-25 -60 -57 -101.5t-63.5 -60t-59 -24.5t-50.5 -2v-1q-6 2 -13 5q-12 4 -19 11h-1q-88 64 -20 256q8 21 30 61q3 4 4 7q4 6 5 7q11 17 26 29t33 18q6 1 13 3q14 36 52 55t74 14q14 -2 27 -7.5t29 -21t24 -38
t5.5 -63.5t-19.5 -93zM220 409q-15 16 -37 10t-36 -27q17 -5 28 -18q-14 -15 -29 -37q20 -36 63 -63q17 50 19 88.5t-8 46.5zM185 210q6 15 13 32q-44 23 -74 59q-14 -25 -27 -54q-29 -63 -39.5 -118.5t0.5 -78.5q30 8 63 49.5t64 110.5zM253 548q-33 34 -64.5 46t-51 7
t-34.5 -19q-11 13 -11.5 30.5t7.5 31.5t26 21t40 0q42 -12 68 -45q24 -31 21 -73z" />
    <glyph glyph-name="oacute" unicode="&#xf3;" horiz-adv-x="370" 
d="M302 241q39 -6 81 -2l-9 -30q-42 -4 -82 2q-9 -21 -10 -24q-25 -60 -57 -101.5t-63.5 -60t-58.5 -24.5t-51 -2v-1q-6 2 -13 5q-12 4 -19 11h-1q-88 64 -20 256q8 21 30 61q3 4 4 7q4 6 5 7q11 17 26 29t33 18q6 1 13 3q14 36 52 55t74 14q14 -2 27 -7.5t29 -21t24 -38
t5.5 -63.5t-19.5 -93zM220 409q-15 16 -37 10t-36 -27q17 -5 28 -18q-14 -15 -29 -37q20 -36 63 -63q17 50 19 88.5t-8 46.5zM185 210q6 15 13 32q-44 23 -74 59q-14 -25 -27 -54q-29 -63 -39.5 -118.5t0.5 -78.5q30 8 63 49.5t64 110.5zM161 548l-1 -1q-3 42 21 73
q26 33 68 45q22 7 40 0t26 -21t7.5 -31.5t-11.5 -30.5q-15 14 -34.5 19t-51 -7t-64.5 -46z" />
    <glyph glyph-name="ocircumflex" unicode="&#xf4;" horiz-adv-x="370" 
d="M302 241q39 -6 81 -2l-9 -30q-42 -4 -82 2q-9 -21 -10 -24q-25 -60 -57 -101.5t-63.5 -60t-58.5 -24.5t-51 -2v-1q-6 2 -13 5q-12 4 -19 11h-1q-88 64 -20 256q8 21 30 61q3 4 4 7q4 6 5 7q11 17 26 29t33 18q6 1 13 3q14 36 52 55t74 14q14 -2 27 -7.5t29 -21t24 -38
t5.5 -63.5t-19.5 -93zM220 409q-15 16 -37 10t-36 -27q17 -5 28 -18q-14 -15 -29 -37q20 -36 63 -63h1q16 50 18 88.5t-8 46.5zM185 210q6 15 13 32q-44 23 -74 59q-14 -25 -27 -54q-29 -63 -39.5 -118.5t0.5 -78.5q30 8 63 49.5t64 110.5zM182 598q-11 -4 -31 -11
q-23 -5 -34 -6q6 10 21 27q15 16 23 23q22 20 52 38l14 9l13 -11q24 -18 43 -40q25 -28 36 -50q-25 5 -58 21q-17 8 -37 22q-23 -14 -42 -22z" />
    <glyph glyph-name="otilde" unicode="&#xf5;" horiz-adv-x="370" 
d="M302 241q39 -6 81 -2l-9 -30q-42 -4 -82 2q-9 -21 -10 -24q-25 -60 -57 -101.5t-63.5 -60t-59 -24.5t-50.5 -2v-1q-6 2 -13 5q-12 4 -19 11h-1q-88 64 -20 256q8 21 30 61q3 4 4 7q4 6 5 7q11 17 26 29t33 18q6 1 13 3q14 36 52 55t74 14q14 -2 27 -7.5t29 -21t24 -38
t5.5 -63.5t-19.5 -93zM220 409q-15 16 -37 10t-36 -27q17 -5 28 -18q-14 -15 -29 -37q20 -36 63 -63q17 50 19 88.5t-8 46.5zM185 210q6 15 13 32q-44 23 -74 59q-14 -25 -27 -54q-29 -63 -39.5 -118.5t0.5 -78.5q30 8 63 49.5t64 110.5zM107 578q-27 7 -33.5 33t15.5 37
q6 -13 17 -20.5t31 -9.5t47 12q48 27 72 21q27 -7 34 -35t-15 -39q-6 13 -17 22t-31 12.5t-47 -10.5q-51 -29 -73 -23z" />
    <glyph glyph-name="odieresis" unicode="&#xf6;" horiz-adv-x="370" 
d="M302 241q39 -6 81 -2l-9 -30q-42 -4 -82 2q-9 -21 -10 -24q-25 -60 -57 -101.5t-63.5 -60t-59 -24.5t-50.5 -2v-1q-6 2 -13 5q-12 4 -19 11h-1q-88 64 -20 256q8 21 30 61q3 4 4 7q4 6 5 7q11 17 26 29t33 18q6 1 13 3q14 36 52 55t74 14q14 -2 27 -7.5t29 -21t24 -38
t5.5 -63.5t-19.5 -93zM220 409q-15 16 -37 10t-36 -27q17 -5 28 -18q-14 -15 -29 -37q20 -36 63 -63h1q16 50 18 88.5t-8 46.5zM185 210q6 15 13 32q-44 23 -74 59q-14 -25 -27 -54q-29 -63 -39.5 -118.5t0.5 -78.5q30 8 63 49.5t64 110.5zM154 577q-15 0 -26 11t-11 26
t11 26t26 11t26 -11t11 -26q0 -10 -5 -18.5t-13.5 -13.5t-18.5 -5zM286.5 577q-15.5 0 -26.5 11t-11 26t11 26t26.5 11t26 -11t10.5 -26t-10.5 -26t-26 -11z" />
    <glyph glyph-name="oslash" unicode="&#xf8;" horiz-adv-x="410" 
d="M422 478l-59 -68q35 -73 -28 -223q-25 -60 -57.5 -101.5t-64 -60t-58.5 -24.5t-50 -2l-1 -1q-6 2 -13 5q-11 4 -19 11v0q-15 11 -26 27l-36 -41h-40l61 71q-24 73 21 199q7 21 30 61q2 4 4 7q3 6 4 7q12 17 27 29t33 18q5 1 13 3q13 36 51.5 55t74.5 14q35 -6 57 -29
l41 48zM149 247q-16 -35 -26 -70l157 182q3 38 -8 50q-14 16 -36.5 10t-35.5 -27q17 -5 28 -18q-41 -42 -79 -127zM237 210q22 48 33 92l-162 -188q-6 -43 3 -64q30 8 63 49.5t63 110.5z" />
    <glyph glyph-name="ugrave" unicode="&#xf9;" horiz-adv-x="430" 
d="M435 232h36q-36 -80 -66 -129.5t-58 -72.5t-51 -29t-54 -2q-32 5 -42 32.5t1 75.5q-27 -41 -51.5 -67t-43 -33.5t-36.5 -10t-31 3.5q-47 11 -56 67t13 145t74 229q4 11 13.5 17.5t20.5 6.5h80q-139 -369 -79 -390q30 -10 67.5 44t81.5 162q11 28 32.5 86t27.5 73
q4 11 13 17.5t21 6.5h46v1h65q-4 -1 -10.5 -5t-22 -22.5t-27.5 -47.5q-88 -231 -99 -285q-11 -51 6 -60q16 -9 52.5 45.5t76.5 141.5zM281 548q-25 26 -49 39.5t-43 14t-33 -4.5t-25 -15q-11 13 -11.5 30.5t7.5 31.5t26 21t41 0q41 -12 67 -45q24 -31 21 -73z" />
    <glyph glyph-name="uacute" unicode="&#xfa;" horiz-adv-x="430" 
d="M435 232h36q-36 -80 -66 -129.5t-58 -72.5t-51 -29t-54 -2q-32 5 -42 32.5t1 75.5q-27 -41 -51.5 -67t-43 -33.5t-36.5 -10t-31 3.5q-47 11 -56 67t13 145t74 229q4 11 13.5 17.5t20.5 6.5h80q-139 -369 -79 -390q30 -10 67.5 44t81.5 162q11 28 32.5 86.5t27.5 72.5
q4 11 13 17.5t21 6.5h46v1h65q-4 -1 -10.5 -5t-22 -22.5t-27.5 -47.5q-88 -231 -99 -285q-11 -51 6 -60q16 -9 52.5 45.5t76.5 141.5zM238 548l-1 -1q-3 42 21 73q25 33 67 45q23 7 40.5 0t25.5 -21t8 -31.5t-11 -30.5q-15 14 -34.5 19t-51 -7t-64.5 -46z" />
    <glyph glyph-name="ucircumflex" unicode="&#xfb;" horiz-adv-x="430" 
d="M435 232h36q-36 -80 -66 -129.5t-58 -72.5t-51 -29t-54 -2q-32 5 -42 32.5t1 75.5q-27 -41 -51.5 -67t-43 -33.5t-36.5 -10t-31 3.5q-47 11 -56 67t13 145t74 229q4 11 13.5 17.5t20.5 6.5h80q-139 -369 -79 -390q30 -10 67.5 44t81.5 162q11 28 32.5 86.5t27.5 72.5
q4 11 13 17.5t21 6.5h46v1h65q-4 -1 -10.5 -5t-22 -22.5t-27.5 -47.5q-88 -231 -99 -285q-11 -51 6 -60q16 -9 52.5 45.5t76.5 141.5zM252 598q-10 -4 -31 -11q-23 -5 -34 -6q6 10 21 27q15 16 23 23q23 20 52 38l14 9l13 -11q24 -18 43 -40q25 -28 36 -50q-25 5 -58 21
q-17 8 -37 22q-23 -14 -42 -22z" />
    <glyph glyph-name="udieresis" unicode="&#xfc;" horiz-adv-x="430" 
d="M435 232h36q-36 -80 -66 -129.5t-58 -72.5t-51 -29t-54 -2q-32 5 -42 32.5t1 75.5q-27 -41 -51.5 -67t-43 -33.5t-36.5 -10t-31 3.5q-47 11 -56 67t13 145t74 229q4 11 13.5 17.5t20.5 6.5h80q-139 -369 -79 -390q30 -10 67.5 44t81.5 162q11 28 32.5 86t27.5 73
q4 11 13 17.5t21 6.5h46v1h65q-4 -1 -10.5 -5t-22 -22.5t-27.5 -47.5q-88 -231 -99 -285q-11 -51 6 -60q16 -9 52.5 45.5t76.5 141.5zM214 577q-15 0 -26 11t-11 26t11 26t26.5 11t26 -11t10.5 -26q0 -10 -5 -18.5t-13.5 -13.5t-18.5 -5zM346 577q-7 0 -14 3t-12 8t-8 11.5
t-3 14.5q0 15 11 26t26.5 11t26 -11t10.5 -26t-10.5 -26t-26.5 -11z" />
    <glyph glyph-name="yacute" unicode="&#xfd;" horiz-adv-x="434" 
d="M480 233q-11 -10 -31.5 -25t-41 -29.5t-51 -36t-54.5 -39.5q-25 -79 -46 -147q-30 -98 -74.5 -147.5t-114.5 -53.5q-56 -3 -74 34t14 87q36 58 172 167q1 4 3 11t3 9v1q6 20 12 37q1 4 2.5 9.5t3.5 11t3 9.5q-23 -40 -45.5 -68t-39.5 -41.5t-35 -19.5t-29.5 -6t-26.5 4
q-47 11 -56.5 67t12 145.5t73.5 228.5q4 11 13 17.5t20 6.5h80q-67 -178 -86.5 -278.5t10.5 -111.5q21 -7 45.5 16.5t51.5 75.5t53 115.5t57 150.5q1 1 2 4t1 3.5t0.5 1l0.5 0.5l0.5 1t0.5 2q10 20 32 20h86h33q-3 -1 -10 -4.5t-23 -23.5t-28 -50q-43 -123 -81 -239
q24 18 50.5 37t43.5 31t23 17h46zM53 -205q50 17 99 161q3 11 12 39q-109 -92 -139 -150q-10 -20 -1.5 -38.5t29.5 -11.5zM205 548l-1 -1q-3 42 21 73q25 33 67 45q23 7 40.5 0t26 -21t8 -31.5t-11.5 -30.5q-15 14 -34.5 19t-51 -7t-64.5 -46z" />
    <glyph glyph-name="ydieresis" unicode="&#xff;" horiz-adv-x="434" 
d="M480 233q-15 -12 -41.5 -31.5t-67 -48.5t-69.5 -50q-25 -79 -46 -147q-30 -98 -74.5 -147.5t-114.5 -53.5q-56 -3 -74 34t14 87q36 58 172 167q0 1 2.5 8.5t3.5 12.5q6 19 12 37q0 1 9 30q-19 -34 -38 -59t-35 -39.5t-30 -23t-27.5 -11t-23.5 -2t-22 3.5q-47 11 -56.5 67
t12 145.5t73.5 228.5q4 11 13 17.5t20 6.5h80q-67 -178 -86.5 -278.5t10.5 -111.5q21 -7 45.5 16.5t51.5 75.5t53 115.5t57 150.5q1 1 1.5 3.5t1.5 3.5q0 1 0.5 1.5l0.5 0.5l0.5 1t0.5 2q10 20 32 20h86h33q-1 0 -3.5 -1t-10 -7t-14.5 -13.5t-16 -22.5t-17 -34
q-43 -124 -81 -239q24 18 50.5 37t43.5 31t23 17h46zM53 -205q50 17 99 161q3 11 12 39q-109 -92 -139 -150q-10 -20 -1.5 -38.5t29.5 -11.5zM215 577q-15 0 -26 11t-11 26t11 26t26.5 11t26 -11t10.5 -26q0 -8 -3 -14.5t-7.5 -11.5t-11.5 -8t-15 -3zM347.5 577
q-15.5 0 -26.5 11t-11 26t11 26t26.5 11t26 -11t10.5 -26t-10.5 -26t-26 -11z" />
    <glyph glyph-name="OE" unicode="&#x152;" horiz-adv-x="1483" 
d="M1178 883q199 35 273 -60q49 -63 24 -151q-21 -75 -78 -108q-45 -26 -95 -9q37 52 54 92.5t15.5 65.5t-15.5 42t-36 23.5t-49.5 7.5t-53 -3t-48.5 -11q-69 -24 -142 -70.5t-127 -98.5t-72 -94q-22 -47 10 -66q6 -4 14 -7q53 -17 134 -4l-21 -103q-72 -24 -137 -60
q-90 -49 -145 -111q-69 -76 -81 -167q-4 -27 -2 -58q3 -42 24 -70q27 -37 83 -48t124 3t146 50.5t149 88t133 122t97 146.5q17 -20 19 -46.5t-12 -49.5q-55 -86 -127.5 -156.5t-147.5 -116.5t-154 -74t-150.5 -34t-133.5 7.5t-104 47.5q-68 -39 -140 -39q-54 0 -98 33.5
t-68.5 86.5t-35.5 114.5t-6 119.5q15 159 91.5 283t206.5 186q27 14 59 11t55 -24q5 -4 7 -7q-86 -40 -150.5 -100.5t-99.5 -127.5t-53 -139t-15 -137.5t18.5 -119.5t42.5 -87q51 -65 135 5q-31 56 -27 132q3 49 22 97t52.5 91.5t80.5 83t105 71.5q33 18 68 34
q-35 15 -52 45q-5 8 -8 18q-10 28 -5 63q-15 101 -77 138q-60 38 -124 32.5t-124.5 -36t-113 -81.5t-90.5 -106.5t-57.5 -110t-12.5 -91.5q-52 22 -71 73t-7 111.5t49.5 124.5t92.5 111q52 44 123.5 71t144 32.5t142.5 -13t117 -60.5q36 -32 61 -72q61 91 166 166t214 96
l3 1q2 0 5.5 0.5t5.5 0.5z" />
    <glyph glyph-name="oe" unicode="&#x153;" horiz-adv-x="520" 
d="M526 233h38q-36 -45 -72 -83.5t-77.5 -76t-83 -59t-75.5 -21.5q-56 0 -79 44q-64 -50 -125 -38v-1q-9 3 -17 7q-9 3 -14 8q-1 0 -1 1h-1q-88 63 -20 256q8 21 30 61q3 4 4 7q4 6 5 7q11 17 26 29t33 18q6 1 13 3q14 36 52 55t74 14q47 -8 70 -46q33 31 68.5 41t58.5 5
t39 -17q45 -38 32 -100q-9 -39 -38.5 -69t-84.5 -44q-38 -10 -85 -11q-1 -5 -4 -12q-2 -5 -5 -11v-1q-13 -37 -18 -68t-3 -49.5t8 -26.5q26 -31 103 26.5t149 151.5zM450 408q-31 4 -67.5 -36.5t-71.5 -115.5q44 0 78 11t50.5 27.5t24.5 31t10 27.5q3 24 -4.5 38.5
t-19.5 16.5zM220 409q-15 16 -37 10t-36 -26v-1q17 -5 28 -18q-14 -15 -29 -37q21 -36 63 -63h1q16 50 18 88.5t-8 46.5zM58 50q30 8 63 49.5t64 110.5q3 7 4 10q1 2 1 3q2 4 7 19q-44 23 -73 59q-14 -25 -27 -54q-29 -63 -39.5 -118.5t0.5 -78.5z" />
    <glyph glyph-name="Scaron" unicode="&#x160;" horiz-adv-x="691" 
d="M721 792h141q-40 -28 -77 -76q-28 -35 -48 -77.5t-29.5 -81t-13.5 -59t-5 -37.5v-1q-1 0 -2.5 0.5t-2.5 1.5q-37 18 -47 62v1q-11 46 8 113q-60 20 -132.5 -3t-124.5 -73t-61 -104q-8 -52 -1.5 -96.5t23 -76t40 -61t49.5 -51.5t51.5 -48.5t45.5 -51.5t31.5 -60.5
t9.5 -75.5q-2 -47 -34 -85t-79 -58.5t-97 -30t-93 -7.5q-71 5 -126 25.5t-80 64.5q-20 39 -16 85.5t30 89.5q21 36 54 63q-31 -123 56 -196q66 -55 157 -52q86 2 120 57q10 16 13 36q4 22 -12.5 48t-46.5 53.5t-66 58.5t-72 70t-64.5 82t-42.5 99.5t-7 117.5q3 27 13 57.5
t26 60t35 50.5q68 78 193 107t239 -13q22 43 45 72zM482 966l-23 23q-15 18 -20 28q11 -1 33 -7q21 -6 31 -11q19 -7 43 -21q20 13 36 22q34 16 58 20q-11 -22 -35 -50q-20 -21 -44 -40l-12 -10l-15 9q-29 17 -52 37z" />
    <glyph glyph-name="scaron" unicode="&#x161;" horiz-adv-x="330" 
d="M284 499h109q-26 -16 -49 -43q-33 -37 -56 -82.5t-24 -61.5v-1l-1 0.5t-2 1.5q-24 10 -30 34v1q-8 27 6 67q-14 3 -26.5 4t-30 -3.5t-32 -15t-27 -33.5t-18.5 -56q0 -12 -1.5 -19.5t2 -19t5 -18.5t7.5 -18.5t9.5 -18t11 -17.5t12 -17l12 -16t11.5 -16q118 65 168 82
l-8 -29v-3q-72 -33 -144 -74q10 -16 15.5 -28.5t10 -29t2.5 -34t-10 -35.5q-27 -66 -115 -79q-73 -11 -120 17t-12 70q4 5 9 10q16 15 43.5 33.5t56.5 35.5t35 21q-3 3 -17 17.5t-18.5 19t-16.5 18t-17 20t-13.5 19t-12.5 21.5t-7.5 20.5t-3.5 21.5q-2 15 -2 26
q3 59 30.5 101t66 58.5t81 16.5t78.5 -19q15 31 33 51zM69 -21q86 41 53 106q-9 -6 -30.5 -19t-36 -22t-31 -20t-26.5 -20t-11 -15q-1 -15 25 -18t57 8zM157 594q-8 7 -23 23q-15 18 -21 27q11 0 34 -6q21 -7 30 -11q20 -7 43 -21q20 13 37 21q33 17 58 21q-11 -22 -36 -50
q-19 -21 -43 -40l-13 -10l-15 9q-29 17 -51 37z" />
    <glyph glyph-name="Ydieresis" unicode="&#x178;" horiz-adv-x="972" 
d="M1167 458l-7 -50q-24 -20 -69 -51t-111.5 -75.5t-112.5 -76.5q-29 -89 -49 -156q-43 -136 -109.5 -212t-129.5 -89q-40 -8 -69 5t-40.5 39t-7.5 63t27 74q51 82 253 234q0 2 1 5t2 5t1.5 5t1.5 5q1 4 4 13t4 13q15 51 28 85q0 1 12 38q-102 -169 -183.5 -228t-155.5 -39
q-69 19 -79 110t30.5 229t125.5 323q-83 -10 -155.5 -56t-122.5 -118t-78 -149t-25 -146t44 -106q-54 -27 -95.5 4.5t-50.5 106.5q-4 47 4 96.5t26.5 97t46 93t61.5 85.5q78 91 180.5 136t242.5 45q6 1 10 1l74 4q-67 -141 -112.5 -253t-70.5 -197t-24 -136t28 -64
q88 -40 225 198q69 119 204 418q9 27 13 40q4 11 11.5 19.5t18 13.5t21.5 5h85h48l-5 -2.5t-13.5 -9t-20.5 -18t-22.5 -30t-23.5 -43.5q-1 -2 -1.5 -4t-1.5 -4.5t-2 -4.5v-1q-114 -324 -165 -479q55 38 119.5 81t105.5 70.5t54 37.5zM559 -192q74 25 147 241q7 23 15 48
q-158 -126 -204 -215q-8 -20 -7.5 -39.5t14 -31t35.5 -3.5zM778.5 949q-15.5 0 -26.5 11t-11 26t11 26t26.5 11t26 -11t10.5 -26t-10.5 -26t-26 -11zM910.5 949q-15.5 0 -26.5 11t-11 26t11 26t26.5 11t26 -11t10.5 -26t-10.5 -26t-26 -11z" />
    <glyph glyph-name="zcaron" unicode="&#x17e;" horiz-adv-x="418" 
d="M419 233h46l-32 -24t-40.5 -30t-51 -36.5t-54.5 -39.5l-2 -6q-26 -83 -44 -141q-31 -98 -75 -147.5t-114 -53.5q-56 -3 -74 34t13 87q36 58 172 167q1 2 2.5 7t2.5 7q0 2 2 7v1l1 2v1q0 2 1 6l2 4q22 67 -31 64q-37 -3 -88 -31l-13 31v0h1v1q117 94 180 145q63 52 65 79
q1 20 -46 2q-40 -17 -84 -49q-33 -24 -56 -46q-2 -1 -5 -5q-16 -16 -25 -31q-1 -1 -1 -2q-23 -33 -28 -60q-1 0 -2 1q-11 6 -20.5 18.5t-14.5 34t0.5 46t31.5 58t72 66.5q48 35 90 50.5t68 14t46 -12t29 -21.5t12 -21q10 -27 -22 -77t-106 -108q50 -3 66 -54q3 -12 2 -27
q3 2 7 4v1q23 17 50 36t43.5 31t23.5 17zM38 -205q50 17 99 161h-1q1 4 5.5 17.5t6.5 20.5v1q-108 -92 -138 -151q-11 -19 -2.5 -37.5t30.5 -11.5zM162 594q-8 7 -23 23q-15 18 -21 27q11 0 34 -6q21 -7 31 -11q19 -8 43 -21q19 13 36 21q33 17 58 21q-11 -22 -36 -50
q-19 -21 -43 -40l-13 -10l-14 9q-29 17 -52 37z" />
    <glyph glyph-name="endash" unicode="&#x2013;" horiz-adv-x="479" 
d="M61 213h368l-11 -79h-368z" />
    <glyph glyph-name="emdash" unicode="&#x2014;" horiz-adv-x="640" 
d="M61 213h529l-11 -79h-529z" />
    <glyph glyph-name="quoteleft" unicode="&#x2018;" horiz-adv-x="288" 
d="M151 884l87 9l-19 -38q-34 -68 -55 -139l-4 -15l-110 -12l15 36q16 38 39.5 82.5t40.5 67.5z" />
    <glyph glyph-name="quoteright" unicode="&#x2019;" horiz-adv-x="289" 
d="M129 881l110 11l-14 -35q-17 -40 -40.5 -84t-40.5 -67l-6 -7l-88 -11l20 39q32 62 55 139z" />
    <glyph glyph-name="quotesinglbase" unicode="&#x201a;" horiz-adv-x="288" 
d="M128 115l110 12l-15 -36q-16 -39 -39.5 -83t-41.5 -67l-5 -8l-87 -11l19 39q35 69 54 139z" />
    <glyph glyph-name="quotedblleft" unicode="&#x201c;" horiz-adv-x="424" 
d="M239 893l-19 -38q-33 -63 -55 -139l-4 -15l-111 -12l15 36q16 39 40 83.5t41 67.5l6 8zM286 884l88 9l-20 -38q-32 -63 -55 -139l-4 -15l-110 -12l15 36q16 39 39.5 83t40.5 67z" />
    <glyph glyph-name="quotedblright" unicode="&#x201d;" horiz-adv-x="421" 
d="M238 892l-15 -35q-15 -38 -39 -82.5t-41 -67.5l-6 -8l-87 -11l19 38q34 68 55 140l5 15zM262 881l109 11l-14 -35q-11 -25 -25.5 -54t-29 -55t-25.5 -41l-6 -8l-88 -11l20 39q32 62 54 139z" />
    <glyph glyph-name="quotedblbase" unicode="&#x201e;" horiz-adv-x="413" 
d="M239 127l-15 -36q-10 -25 -25 -55t-29.5 -55t-25.5 -40l-6 -8l-88 -11l20 39q32 62 55 139l4 15zM253 115l110 12l-15 -36q-16 -39 -40 -83t-41 -67l-6 -8l-88 -11l20 39q32 62 55 139z" />
    <glyph glyph-name="dagger" unicode="&#x2020;" horiz-adv-x="559" 
d="M329 488l180 8l-13 -93l-178 8l-59 -471h-103l75 471l-181 -9l13 93l179 -7l22 218h104z" />
    <glyph glyph-name="bullet" unicode="&#x2022;" horiz-adv-x="274" 
d="M205 233q23 -26 18 -63q-4 -23 -17.5 -42t-34 -30t-43.5 -11q-37 0 -59 26q-23 27 -18 64q5 34 32.5 58t62.5 24q36 0 59 -26z" />
    <glyph glyph-name="ellipsis" unicode="&#x2026;" horiz-adv-x="533" 
d="M117 88q26 0 42.5 -19t13.5 -45q-4 -24 -23 -41t-44 -17q-26 0 -42.5 19t-12.5 45q3 25 22.5 41.5t43.5 16.5zM272 88q26 0 42.5 -19t12.5 -45q-3 -24 -22.5 -41t-43.5 -17q-26 0 -42.5 19t-13.5 45q4 25 23 41.5t44 16.5zM469.5 69q16.5 -19 12.5 -45q-3 -24 -22.5 -41
t-43.5 -17q-27 0 -43.5 19t-12.5 45q3 25 22.5 41.5t43.5 16.5q27 0 43.5 -19z" />
    <glyph glyph-name="guilsinglleft" unicode="&#x2039;" horiz-adv-x="342" 
d="M288 485q12 -25 -7 -46l-138 -158l92 -157q12 -20 -1 -42q-13 -24 -39 -24q-24 0 -35 20l-105 182q-14 26 6 50l157 182q13 16 34 16q26 0 36 -23z" />
    <glyph glyph-name="guilsinglright" unicode="&#x203a;" horiz-adv-x="344" 
d="M288 306q15 -25 -5 -49l-158 -183q-14 -16 -34 -16q-27 0 -37 23q-11 25 7 46l138 159l-92 157q-12 20 1 42q13 23 39 23q23 0 34 -19z" />
    <glyph glyph-name="Euro" unicode="&#x20ac;" horiz-adv-x="673" 
d="M603 664l20 -10l-37 -82l-21 10q-41 20 -94 20q-80 0 -140 -55q-46 -39 -74 -115h286l-10 -69h-298q-5 -22 -7 -38l-1 -7h300l-10 -68h-292q1 -77 36 -122q45 -55 128 -55q55 0 112 25l28 13l11 -85l-14 -7q-70 -39 -154 -39q-65 0 -118 25t-87 72q-51 66 -51 173h-66
l10 68h59l1 10q2 16 6 35h-60l10 69h69q34 106 110 173q96 88 221 88q70 0 127 -29z" />
    <glyph glyph-name="a.alt1" unicode="&#xf023;" horiz-adv-x="458" 
d="M455 465h32q-1 0 -3.5 -1t-10 -7t-14.5 -13.5t-16.5 -22.5t-16.5 -34q-61 -161 -76 -205l-0.5 -1.5l-0.5 -1.5q-7 -21 -12 -39q-2 -5 -3 -9q-2 -10 -5 -24q-2 -5 -2 -9q-13 -61 -7 -97q-21 -5 -49 -1q-42 6 -46.5 51t21.5 123q-27 -49 -51 -83t-46.5 -55.5t-43.5 -31.5
t-43 -11q-10 0 -21 1.5t-24.5 8.5t-24 18.5t-17 32.5t-5.5 49.5t12 71.5t34 95q28 65 61 109t62 62t57 22.5t47.5 -1t31.5 -16.5q35 -31 33 -81q14 30 28 59v1q4 11 6 16q4 11 13.5 17.5t20.5 6.5h79zM78 48q37 -42 138 138q26 46 57 106q9 40 8.5 65t-7 37t-17.5 14
q-21 3 -45.5 -15.5t-49.5 -56t-49 -89.5q-22 -49 -33 -93t-10.5 -70t8.5 -36z" />
    <glyph glyph-name="b.alt1" unicode="&#xf024;" horiz-adv-x="461" 
d="M328 464q11 0 21.5 -1.5t24 -8.5t24 -18.5t17 -32.5t5.5 -49.5t-12 -71.5t-34 -95q-28 -65 -61.5 -108.5t-62.5 -61t-58 -22t-48.5 1.5t-31.5 17q-4 3 -5 5q-18 17 -18 39.5t20 33.5q-1 -15 6 -30q6 -11 18 -13q32 -4 70 39t74 122q22 49 33 93t10.5 70t-8.5 36
q-37 42 -138 -138q-26 -46 -56 -106q-21 -43 -37 -75q-14 -29 -36 -77q-6 -31 -8.5 -52.5t-0.5 -32.5q-68 -9 -87 24.5t2 113.5q28 115 197 631q4 11 13.5 18t20.5 7h120q-4 -1 -10.5 -4.5t-22.5 -23.5t-28 -49q-99 -281 -155 -474q79 161 133 225.5t109 67.5z" />
    <glyph glyph-name="g.alt1" unicode="&#xf025;" horiz-adv-x="466" 
d="M495 465q-35 -11 -61 -78q-87 -249 -142 -431v0q-31 -98 -75 -147.5t-115 -53.5q-40 -2 -62 19q44 -2 80 44l1 1q20 22 40 67v1.5t0.5 1t2.5 4.5q10 25 23 63q16 51 36 115q4 15 8 25q19 59 39 122q-64 -121 -111 -172t-97 -53q-10 0 -21 1.5t-24.5 8.5t-24 18.5
t-17 32.5t-5.5 49.5t12 71.5t34 95q28 65 61.5 109t62.5 62t57 22.5t47.5 -1t32.5 -16.5q34 -30 31 -80q14 29 29 61q2 5 4 13q4 11 13.5 18t21.5 7h86h33zM78 48q37 -42 138 138q26 46 57 106q9 40 8.5 65t-7 37t-17.5 14q-32 4 -70 -39t-74 -122q-22 -49 -33 -93
t-10.5 -70t8.5 -36z" />
    <glyph glyph-name="h.alt1" unicode="&#xf026;" horiz-adv-x="437" 
d="M396 465q17 0 26 -13t3 -29q-78 -207 -92 -249q-2 -4 -6 -19q-2 -5 -5 -16q-7 -25 -11 -47q-11 -57 -6 -91q-21 -5 -49 -1q-59 8 -43 100q10 64 90 276l14 37q-42 -31 -104.5 -123.5t-113.5 -196t-63 -165.5q-68 -9 -87 24.5t2 113.5q28 115 197 631q4 11 13.5 18t20.5 7
h120q-4 -1 -10.5 -4.5t-22.5 -23.5t-28 -49q-109 -310 -165 -508q39 79 87.5 153.5t96 124.5t76.5 50h60z" />
    <glyph glyph-name="i.alt1" unicode="&#xf027;" horiz-adv-x="198" 
d="M239 642l63 -1q-24 -5 -56 -60q-5 -8 -9 -17q-12 -22 -24 -50h-105q9 24 23.5 61t17.5 44q9 25 34 25l55 -2h1zM79 441q4 11 13.5 17.5t20.5 6.5h80q-14 -37 -42 -109.5t-43.5 -115.5t-26.5 -76l-1 -4q-14 -45 -18 -70v-3q-10 -54 -5 -86q-21 -5 -49 -1q-59 8 -43 100
q11 65 91 278q15 41 23 63z" />
    <glyph glyph-name="j.alt1" unicode="&#xf028;" horiz-adv-x="200" 
d="M71 440q2 6 5.5 10.5t8 8t10 5t10.5 1.5h87q-8 -21 -28 -77v-1q-87 -248 -142 -429v-0.5v-1.5q-31 -98 -75 -147.5t-115 -53.5q-40 -2 -62 19q44 -2 80 44l1 1q20 22 40 67v1.5t0.5 0.5t2.5 5q10 25 23 63q17 55 39 126l1 1q59 188 114 357zM232 642l64 -1h-1
q-24 -5 -56 -60q-5 -8 -9 -17q-12 -22 -24 -50h-105q9 24 23.5 61t17.5 44q10 25 35 25l54 -2h1z" />
    <glyph glyph-name="m.alt1" unicode="&#xf029;" horiz-adv-x="631" 
d="M600 508q17 0 25.5 -13.5t2.5 -29.5q-97 -257 -113 -310q-11 -39 -16 -65v-3q-10 -53 -5 -86q-20 -5 -51 -1q-62 9 -33 134q17 72 95 281q-59 -88 -207 -334q-9 -16 -28 -16h-39q-17 0 -27 12.5t-5 28.5q52 193 85 283q-65 -83 -149 -232t-99 -229v0q-68 -9 -87 24.5
t2 113.5q17 70 114 374q1 3 3 6t4 5.5t4.5 5t5 4t5.5 3t6.5 2t6.5 0.5h115l-4 -2t-9.5 -6t-14.5 -12.5t-16 -22t-16 -31.5q-51 -156 -81 -264q58 116 137 226.5t101 110.5h61q16 0 25 -13t3 -29q-27 -72 -65 -197q46 74 87 135.5t74 104t43 42.5h60z" />
    <glyph glyph-name="n.alt1" unicode="&#xf02a;" horiz-adv-x="427" 
d="M396 465q17 0 26 -13.5t3 -28.5q-75 -198 -91 -244q-3 -8 -5 -18q-4 -11 -5 -17q-1 -2 -2 -5q-7 -25 -11 -47q-3 -16 -6 -36q-3 -33 1 -55q-22 -5 -50 -1q-59 8 -43 100q11 64 91 279q4 9 6 15q-71 -81 -165 -233.5t-109 -232.5v0q-68 -10 -87 24t2 114q17 70 114 374
q1 3 3 6t4 5.5t4.5 5t5 4t5.5 3t6.5 2t6.5 0.5h115q-2 -1 -4.5 -2t-9.5 -6t-14 -12.5t-16 -22t-16 -31.5q-54 -167 -85 -278q40 77 98.5 161t105.5 137t62 53v0h60z" />
    <glyph glyph-name="o.alt1" unicode="&#xf02b;" horiz-adv-x="363" 
d="M236 464q16 -3 30 -9t31 -25t23.5 -47t-2 -79.5t-36.5 -116.5q-25 -60 -57 -101.5t-63.5 -60t-58.5 -24.5t-51 -2v-1q-6 2 -13 5q-12 4 -19 11h-1q-88 64 -20 256q8 21 30 61q3 4 4 7q4 6 5 7q11 17 26 29t33 18q6 1 13 3q14 36 52 55t74 14zM185 210q22 49 33 93
t10.5 70t-8.5 36q-15 15 -37 9.5t-36 -26.5q17 -5 28 -18q-40 -42 -78 -127q-29 -63 -39.5 -119t0.5 -78q30 8 63 49.5t64 110.5z" />
    <glyph glyph-name="p.alt1" unicode="&#xf02c;" horiz-adv-x="455" 
d="M323 464q10 0 20.5 -1.5t24.5 -8.5t24 -18.5t16.5 -32.5t6 -49.5t-12 -71.5t-33.5 -95q-28 -65 -61.5 -108.5t-63 -61t-58 -22t-48 1.5t-32.5 17l-5 5q-17 17 -17.5 39.5t19.5 33.5q-2 -18 4 -28q9 -13 20 -15q32 -4 70.5 39t73.5 122q22 49 33 93t10.5 70t-8.5 36
q-36 42 -138 -138q-26 -46 -56 -107l-37 -74q-13 -28 -32 -69q-26 -88 -36 -131q-27 -106 -21 -135q-68 -10 -87 24t2 114q9 37 67.5 230t98.5 317q4 11 13.5 18.5t21.5 7.5h115q-4 -1 -10 -4.5t-22 -22t-27 -45.5q-27 -83 -58 -184q48 94 85 148.5t70 79t68 26.5z" />
    <glyph glyph-name="s.alt1" unicode="&#xf02d;" horiz-adv-x="331" 
d="M285 499h108q-25 -16 -49 -43q-33 -37 -55.5 -82.5t-24.5 -61.5v-1l-1 0.5l-1 0.5l-1 1q-24 10 -30 34v1v1q-7 27 6 66q-11 2 -21.5 3t-24.5 -0.5t-27 -8t-25 -18t-21.5 -32t-14.5 -48.5q0 -12 -1.5 -19.5t2 -19t5 -19t7.5 -18.5t10 -17.5t11 -17.5t11.5 -17l12 -16
t11.5 -16l16 -25q10 -15 15.5 -27.5t10 -29t2.5 -34t-9 -35.5q-28 -66 -117 -80q-73 -11 -120 18q-40 25 -18 61q3 -18 19 -23.5t43 -5.5q5 0 22 1q1 1 4.5 1.5t4.5 0.5h1q12 2 23 6q86 41 53 106l-19 23l-17 17t-18 18.5t-16.5 18.5t-17.5 20.5t-13.5 19t-12.5 21.5
t-7.5 20.5t-3.5 21.5q-2 15 -2 26q4 59 31 100.5t65.5 58.5t81 17t78.5 -19v0q15 31 34 51z" />
    <glyph glyph-name="u.alt1" unicode="&#xf02e;" horiz-adv-x="429" 
d="M394 465h65q-4 -1 -10.5 -5t-22 -22.5t-27.5 -47.5l-0.5 -1.5l-0.5 -1.5h-1q-66 -175 -81 -223l-1 -4q-15 -45 -18 -71l-1 -2q-9 -54 -4 -86q-21 -5 -50 -1q-41 6 -46 50q-2 17 2 42q0 3 2 14l1 1q-27 -41 -51.5 -67t-43 -33.5t-36.5 -10t-31 3.5q-47 11 -56 67t13 145
t74 229q4 11 13.5 17.5t20.5 6.5h80q-68 -180 -88 -278.5t9 -111.5q31 -10 68.5 45t82.5 165q5 14 58 155q2 7 7.5 12.5t12 8.5t13.5 3h47v1z" />
    <glyph glyph-name="x.alt1" unicode="&#xf02f;" horiz-adv-x="355" 
d="M395 466q-4 -1 -12 -5t-32.5 -22.5t-49.5 -46.5q-90 -114 -157 -202q8 -56 32 -95.5t51 -52.5q1 -1 3 -1q3 -2 7 -3l4 -1q42 -10 69 6q-29 -31 -56.5 -40t-61.5 -4q-33 5 -64.5 30.5t-52.5 68.5q-17 -24 -25 -35q-77 -106 -84 -135q-15 2 -25.5 7t-14.5 13t-6 15.5
t1.5 18.5t6.5 19t10 19.5t11 17.5t11 16t8 12q20 28 81 108q-22 119 32 266q4 11 13.5 17.5t20.5 6.5h80q-41 -87 -51 -168q15 19 113 144q20 26 47 26h91z" />
    <glyph glyph-name="y.alt1" unicode="&#xf030;" horiz-adv-x="439" 
d="M458 465q-1 0 -3.5 -1t-10 -7t-14.5 -13.5t-16 -22.5t-17 -34q-87 -249 -142 -431v0q-30 -98 -74 -147.5t-115 -53.5q-41 -2 -63 19q44 -2 81 44l1 1q19 22 39 67q0 1 0.5 1.5t0.5 1t2 4.5q11 25 24 63q15 51 35 115q5 15 8 25q3 9 10 31q-19 -33 -37.5 -57t-34.5 -38.5
t-29.5 -23t-27.5 -10.5t-23.5 -1.5t-21.5 3.5q-47 11 -56.5 67t12 145.5t73.5 228.5q4 11 13 17.5t20 6.5h80q-67 -178 -86.5 -278.5t10.5 -111.5q20 -6 43 15t48.5 68t50.5 105.5t55 139.5l12 37q3 11 13 18t21 7h86h33z" />
    <glyph glyph-name="a.alt2" unicode="&#xf031;" horiz-adv-x="906" 
d="M665 397q36 12 75.5 8t69.5 -22.5t42 -52t-8 -81.5q-1 18 -26.5 29t-69 9.5t-95 -14t-112.5 -47.5t-113 -86l-108 -139q-21 -5 -49 -1q-42 6 -46.5 51t21.5 123q-54 -96 -96.5 -137.5t-87.5 -43.5q-10 0 -21 1.5t-24.5 8.5t-24 18.5t-17 32.5t-5.5 49.5t12 71.5t34 95
q28 65 61 108.5t62 62t57 23t47.5 -1t31.5 -16.5q35 -31 33 -81q14 30 28 59v1q4 11 6 16q4 11 13.5 17.5t20.5 6.5h79h32q-4 -1 -10.5 -4.5t-22.5 -23.5t-28 -50q-61 -161 -76 -205l-0.5 -1.5l-0.5 -1.5q-7 -21 -12 -39q-2 -5 -3 -9q-2 -10 -5 -24q-2 -5 -2 -9
q-5 -21 -7 -42q50 60 89 110q5 5 23.5 31t31.5 42.5t38 44t47 46.5t53.5 38t62.5 29zM78 48q37 -42 138 138q26 46 57 106q9 40 8.5 65t-7 37t-17.5 14q-32 4 -70 -39t-74 -122q-22 -49 -33 -93t-10.5 -70t8.5 -36z" />
    <glyph glyph-name="b.alt2" unicode="&#xf032;" horiz-adv-x="742" 
d="M579 517q48 1 77 -23t33.5 -59t-6 -73t-35.5 -67q-27 -32 -64 -57.5t-81 -42t-70 -24.5t-67 -18q-2 0 -3 -0.5t-2.5 -1t-2.5 -0.5q-28 -54 -59.5 -90t-59 -50t-53.5 -16.5t-44 3t-30 16.5q-4 3 -5 5q-18 17 -18 39.5t20 33.5v0l135 55q17 29 33 63q17 37 27.5 72t13.5 60
t1.5 42.5t-7.5 24.5q-37 42 -138 -138q-26 -46 -56 -106q-21 -43 -37 -75q-14 -29 -36 -77q-6 -31 -8.5 -52.5t-0.5 -32.5q-68 -9 -87 24.5t2 113.5q28 115 197 631q4 11 13.5 18t20.5 7h120q-4 -1 -10.5 -4.5t-22.5 -23.5t-28 -49q-99 -281 -155 -474q79 161 133 225.5
t109 67.5q15 0 30.5 -3.5t33 -19t25 -42t0 -77t-35.5 -118.5q54 31 97.5 72t67.5 79t37 73t11.5 58.5t-15.5 30.5zM133 49q34 -5 76 46l-87 -37q4 -8 11 -9z" />
    <glyph glyph-name="c.alt1" unicode="&#xf033;" horiz-adv-x="768" 
d="M527 397q35 12 74.5 8t69.5 -22.5t42 -52t-7 -81.5q-3 31 -66 39t-164 -28.5t-186 -118.5q-139 -148 -227 -148q-10 0 -20.5 2t-24.5 9t-24.5 18t-17.5 32.5t-6 49.5t12 71t34 95q25 60 56 102t58 61.5t54.5 27t47.5 4.5t36 -12q14 27 31 46h108q-29 -19 -55 -50
t-41 -59.5t-24 -50t-9 -28.5q-52 20 -29 97q-21 -1 -44 -20.5t-46.5 -55.5t-45.5 -85t-32.5 -91.5t-9 -66.5t9.5 -34q20 -25 74.5 7.5t117.5 100.5q5 7 14.5 20t18.5 25.5t21 28.5t24.5 30.5t27.5 31t31.5 30.5t35 27t39 23.5t42.5 17.5z" />
    <glyph glyph-name="e.alt1" unicode="&#xf034;" horiz-adv-x="767" 
d="M526 397q36 12 75.5 8t69.5 -22.5t42 -52t-8 -81.5q-1 12 -14 21.5t-37 13.5t-54.5 3.5t-67.5 -10t-75.5 -25t-81 -43t-80.5 -63.5q-142 -153 -232 -153q-10 0 -20.5 2t-24.5 9t-24.5 18t-17.5 32.5t-6 49.5t12 71t34 95q20 47 43 83t45 57.5t44 34.5t41.5 17t37 3t30 -6
t21.5 -12q46 -37 32 -101q-11 -51 -61 -86.5t-146 -36.5q-17 -43 -24.5 -79.5t-6.5 -58t9 -30.5q20 -25 74.5 7.5t117.5 99.5q5 8 22.5 32.5t31 43t37.5 45t46.5 46.5t53.5 39t62 29zM257 408q-21 3 -44.5 -14.5t-48 -52.5t-47.5 -85q45 0 78.5 11t50.5 27.5t25 31t10 27.5
q3 24 -4.5 38.5t-19.5 16.5z" />
    <glyph glyph-name="f.alt1" unicode="&#xf035;" horiz-adv-x="596" 
d="M354 466q36 12 75.5 8t69.5 -22.5t42 -52t-7 -81.5q-2 18 -27.5 29t-69 9.5t-95 -14t-112 -47t-112.5 -86.5q24 -38 26.5 -85.5t-12.5 -88t-41 -70.5t-55 -37q-68 -9 -87 24.5t2 113.5q29 115 197 631q4 11 13.5 18t20.5 7h120q-4 -1 -10.5 -4.5t-22.5 -23.5t-28 -49
q-77 -219 -131 -395l6 9q25 34 42 55t49 55.5t69.5 59t77.5 37.5zM40 -16q-4 -26 8 -24q18 3 41 49q43 83 18 149q-6 16 -16 29q-35 -120 -48 -187q-1 -1 -1 -1.5v-1.5q-1 -5 -2 -13z" />
    <glyph glyph-name="g.alt2" unicode="&#xf036;" horiz-adv-x="834" 
d="M605 330q50 10 99.5 -8.5t70.5 -59t-10 -101.5q1 18 -23 32t-67.5 18t-96 -2.5t-117 -33.5t-122.5 -72h-1q-26 -79 -46 -146q-31 -99 -75 -148.5t-115 -53.5q-55 -3 -73 34t13 87q36 58 172 167q1 1 3 8.5t4 12.5q6 20 11 37q19 59 38 117q-64 -121 -111 -172t-97 -53
q-10 0 -21 1.5t-24.5 8.5t-24 18.5t-17 32.5t-5.5 49.5t12 71.5t34 95q28 65 61.5 109t62.5 62t57 22.5t47.5 -1t32.5 -16.5q34 -30 31 -80q16 32 29 61q2 5 4 13q4 11 13.5 18t21.5 7h86h33q-4 -1 -10.5 -4.5t-22.5 -23.5t-28 -50q-40 -115 -77 -225q20 22 36 38t42 39.5
t50.5 39.5t56 30.5t63.5 20.5zM78 48q37 -42 138 138q26 46 57 106q9 40 8.5 65t-7 37t-17.5 14q-32 4 -70 -39t-74 -122q-22 -49 -33 -93t-10.5 -70t8.5 -36zM89 -205q50 17 99 161h-1q4 11 12 39q-108 -92 -138 -150q-11 -20 -2.5 -38.5t30.5 -11.5z" />
    <glyph glyph-name="h.alt2" unicode="&#xf037;" horiz-adv-x="891" 
d="M650 397q36 11 75.5 7t69.5 -22.5t42 -52t-8 -81.5q-1 18 -26.5 29t-69 10t-95 -14t-112 -47.5t-112.5 -85.5l-109 -139q-21 -5 -49 -1q-59 8 -43 100q10 64 90 276l14 37q-42 -31 -104.5 -123.5t-113.5 -196t-63 -165.5q-68 -9 -87 24.5t2 113.5q28 115 197 631
q4 11 13.5 18t20.5 7h120q-4 -1 -10.5 -4.5t-22.5 -23.5t-28 -49q-109 -310 -165 -508q39 79 87.5 153.5t96 124.5t76.5 50v0h60q17 0 26 -13t3 -29q-78 -207 -92 -249q-2 -4 -6 -19q-2 -5 -5 -16q-8 -25 -11 -47q-4 -17 -6 -37q51 61 89 109q4 6 22.5 31.5t32 42.5t38 44.5
t47 46.5t53.5 38t63 30z" />
    <glyph glyph-name="i.alt2" unicode="&#xf038;" horiz-adv-x="643" 
d="M237 564q-12 -22 -24 -50h-105q9 24 23.5 61t17.5 44q9 25 34 25l55 -2h1l63 -1q-24 -5 -56 -60q-5 -8 -9 -17zM402 397q36 11 75.5 7t69.5 -22.5t42 -52t-8 -81.5q-1 18 -26.5 29t-69 10t-95 -14t-112 -47.5t-113.5 -85.5l-108 -139q-21 -5 -49 -1q-59 8 -43 100
q11 65 91 278q15 41 23 63q4 11 13.5 17.5t20.5 6.5h80q-14 -37 -42 -109.5t-43.5 -115.5t-26.5 -76l-1 -4q-14 -44 -18 -70v-3q-3 -14 -5 -31q51 60 89 109q4 5 23 31.5t32 43t38 44t47 46t53.5 37.5t62.5 30z" />
    <glyph glyph-name="j.alt2" unicode="&#xf039;" horiz-adv-x="551" 
d="M219 564q-12 -22 -24 -50h-105q9 24 23.5 61t17.5 44q9 25 34 25l55 -2h1l63 -1q-24 -5 -56 -60q-5 -8 -9 -17zM321 330q51 10 100.5 -8.5t70.5 -59t-10 -101.5q0 17 -21 30.5t-60 18.5t-86.5 1t-107 -24.5t-114.5 -56.5q-18 -13 -36 -27q-26 -80 -46 -147
q-21 -65 -45.5 -107.5t-60.5 -67.5t-84 -26q-60 0 -76 35.5t16 85.5q36 58 172 167q1 4 3 10.5t3 9.5v1q6 20 12 37q57 181 109 339q4 11 13.5 18t20.5 7h86q-7 -21 -27 -77v-1q-40 -112 -76 -221q25 27 46.5 47.5t54 46.5t69 44t74.5 26zM-192 -205q49 18 98 161
q7 24 12 40q-111 -93 -141 -152q-11 -20 -2 -39t33 -10z" />
    <glyph glyph-name="m.alt2" unicode="&#xf03a;" horiz-adv-x="1077" 
d="M836 392q36 12 75.5 8t69.5 -22.5t42 -52t-8 -81.5q-1 18 -26.5 29t-69 10t-95 -14t-112 -47.5t-113.5 -85.5l-105 -135q-20 -5 -51 -1q-62 9 -33 134q17 72 95 281q-59 -88 -207 -334q-9 -16 -28 -16h-39q-17 0 -27 12.5t-5 28.5q52 193 85 283q-65 -83 -149 -232
t-99 -229v0q-68 -9 -87 24.5t2 113.5q17 70 114 374q4 11 13.5 18.5t21.5 7.5h115q-1 0 -2.5 -0.5t-5.5 -3t-8 -6t-9.5 -9.5t-11 -13t-12 -18t-11.5 -24q-51 -156 -81 -264q58 116 137 226.5t101 110.5h61q16 0 25 -13t3 -29q-27 -72 -65 -197q46 74 87 135.5t74 104
t43 42.5h60q8 0 15 -3.5t10.5 -9.5t5 -14t-2.5 -16q-97 -257 -113 -310q-12 -39 -16 -65v-3q-3 -14 -5 -31q57 69 99 123q22 30 31.5 42.5t37.5 45.5t50 52t56 40.5t68 32.5z" />
    <glyph glyph-name="n.alt2" unicode="&#xf03b;" horiz-adv-x="891" 
d="M650 397q35 11 74.5 7t69.5 -22.5t42 -52t-7 -81.5q-1 13 -14.5 22t-37.5 13.5t-54.5 3.5t-68.5 -10.5t-77 -25.5t-81.5 -44t-79.5 -65l-111 -141q-21 -5 -49 -1q-59 8 -43 100q11 65 91 279l6 15q-71 -81 -165 -233.5t-109 -232.5v0q-68 -10 -87 24t2 114q17 70 114 374
q1 3 3 6t4 5.5t4.5 5t5 4t5.5 3t6.5 2t6.5 0.5h115q-2 -1 -4.5 -2t-9.5 -6t-14 -12.5t-16 -22t-16 -31.5q-54 -167 -85 -278q40 77 98.5 161t105.5 137t62 53h60q17 0 26 -13t3 -29q-75 -197 -91 -244q-3 -8 -5 -18q-4 -11 -6 -17q0 -1 -1 -5q-7 -25 -11 -47q-3 -17 -5 -35
q54 65 95 118q1 1 15 20.5t19.5 26.5t20.5 26.5t25 29.5t27 27.5t31.5 28.5t32.5 24t37.5 22.5t40.5 16.5z" />
    <glyph glyph-name="o.alt2" unicode="&#xf03c;" horiz-adv-x="758" 
d="M637 456q45 -20 61.5 -53.5t6.5 -67t-35 -64t-59 -46.5q-39 -19 -83.5 -27.5t-93.5 -5.5t-74.5 6.5t-68.5 10.5q-8 -20 -9 -22q-25 -60 -57 -101.5t-63.5 -60t-59 -24.5t-50.5 -2v-1q-6 2 -13 5q-12 4 -19 11h-1q-88 64 -20 256q8 21 30 61q3 4 4 7q4 6 5 7q11 17 26 29
t33 18q6 1 13 3q14 36 52 55t74 14q14 -2 26.5 -7.5t28.5 -20.5t24 -37t6.5 -62t-17.5 -91q48 3 93.5 14.5t80 27t66 34.5t50.5 38.5t33 38t14.5 33t-4.5 24.5zM220 409q-15 16 -37 10t-36 -27q17 -5 28 -18q-14 -15 -29 -37q20 -36 63 -63h1q16 50 18 88.5t-8 46.5z
M185 210q6 15 13 32q-44 23 -74 59q-14 -25 -27 -54q-29 -63 -39.5 -119t0.5 -78q30 8 63 49.5t64 110.5z" />
    <glyph glyph-name="p.alt2" unicode="&#xf03d;" horiz-adv-x="859" 
d="M668 278q51 -7 92 -40t47.5 -78t-42.5 -93q7 16 -11 37t-56.5 38.5t-89.5 28.5t-119.5 7t-136.5 -27q-27 -54 -58.5 -89.5t-59 -50t-54 -17t-44.5 3t-30 16.5l-5 5q-17 17 -17.5 39.5t19.5 33.5v0l136 54q17 30 32 64q14 30 23.5 59t14 51.5t5.5 40.5t-1 30t-7 18
q-36 42 -138 -138q-26 -46 -56 -107l-37 -74q-13 -28 -32 -69q-26 -88 -36 -131q-27 -106 -21 -135q-68 -9 -87 24.5t2 113.5q9 37 67.5 230t98.5 317q1 3 2.5 6t4 5.5t4.5 5t5 4l6 3t6.5 2t6.5 0.5h115q-2 -1 -4.5 -2t-9.5 -6t-13.5 -12.5t-15.5 -21t-16 -30.5
q-27 -82 -58 -184q48 94 85 148.5t69.5 79t68.5 26.5q15 0 30 -3.5t32.5 -19.5t25 -42.5t0 -78t-36.5 -119.5l7 2q168 91 287 75zM127 49q35 -5 77 46l-87 -37q4 -8 10 -9z" />
    <glyph glyph-name="s.alt2" unicode="&#xf03e;" horiz-adv-x="777" 
d="M569 342q52 0 97 -27.5t58 -71t-29 -97.5q4 17 -17 35.5t-62.5 30.5t-94.5 15.5t-121.5 -11t-133.5 -47.5q-42 -22 -78 -42q10 -16 15.5 -28.5t10 -29t2.5 -34t-10 -35.5q-27 -66 -115 -79q-73 -12 -120 17q-47 28 -12 70q4 5 9 10q16 15 43.5 33.5t56.5 35.5t35 21
q-3 3 -17 17.5t-18.5 19t-16.5 18t-17 20t-13.5 19t-12.5 21.5t-7.5 20.5t-3.5 21.5q-2 15 -2 26q3 59 30.5 101t66 58.5t81 16.5t78.5 -19q15 31 33 51h109q-26 -16 -49 -43q-33 -37 -56 -82.5t-24 -61.5v-1l-1 1q-1 0 -2 1q-24 10 -30 34v1q-8 27 6 67q-14 3 -26.5 4
t-30 -3.5t-32 -15t-27 -33.5t-18.5 -56q0 -12 -1.5 -19.5t2 -19t5 -18.5t7.5 -18.5t9.5 -18t11 -17.5t12 -17l12 -16t11.5 -16q45 25 84 44q5 4 38 28.5t56.5 40t61.5 36t78 31t79 11.5zM69 -21q86 41 53 106q-9 -6 -30.5 -19t-36 -22t-31 -20t-26.5 -20t-11 -15
q-1 -15 25 -18t57 8z" />
    <glyph glyph-name="y.alt2" unicode="&#xf040;" horiz-adv-x="795" 
d="M566 328q51 10 100 -8.5t70 -59t-10 -101.5q1 18 -23 32t-67 18t-95 -2.5t-116.5 -33t-122.5 -70.5q-26 -80 -46 -147q-30 -98 -74.5 -147.5t-114.5 -53.5q-56 -3 -74 34t14 87q36 58 172 167q0 1 2.5 8.5t3.5 12.5q6 19 12 37q0 1 9 30q-23 -40 -45.5 -68t-39.5 -41.5
t-35 -19.5t-29.5 -6t-26.5 4q-47 11 -56.5 67t12 145.5t73.5 228.5q4 11 13 17.5t20 6.5h80q-67 -178 -86.5 -278.5t10.5 -111.5q21 -7 45.5 16.5t51.5 75.5t53 115.5t57 150.5q1 1 1.5 3.5t1.5 3.5q0 1 0.5 1.5l0.5 0.5l0.5 1t0.5 2q10 20 32 20h86h33q-1 0 -3.5 -1t-10 -7
t-14.5 -13.5t-16 -22.5t-17 -34q-40 -114 -76 -223q25 28 46.5 48.5t54 46t69 43.5t74.5 26zM53 -205q50 17 99 161q3 11 12 39q-109 -92 -139 -150q-10 -20 -1.5 -38.5t29.5 -11.5z" />
    <glyph glyph-name="z.alt1" unicode="&#xf041;" horiz-adv-x="777" 
d="M548 325q50 10 99.5 -8.5t70.5 -59t-10 -101.5q1 18 -22.5 31.5t-66.5 18t-95 -1.5t-116 -32.5t-121 -69.5q-1 -3 -2 -5q-26 -83 -44 -141q-31 -98 -75 -147.5t-114 -53.5q-56 -3 -74 34t13 87q36 58 172 167q1 2 2.5 7t2.5 7q0 2 2 7l0.5 1.5t0.5 2v0.5q0 2 1 6l2 4
q17 54 -12.5 62t-67.5 -10l-39 -19l-13 31v0h1q122 99 180 146q63 52 65 79q1 20 -46 2q-40 -17 -84 -49q-33 -24 -56 -46q-2 -1 -5 -5q-16 -16 -25 -31q-1 -1 -1 -2q-23 -33 -28 -60q-1 0 -2 1q-11 6 -20.5 18.5t-14.5 34t0.5 46t31.5 58t72 66.5q48 35 90 50.5t68 14
t46 -12t29 -21.5t12 -21q10 -27 -22 -77t-106 -108q50 -3 66 -54q2 -8 2 -19q27 29 47.5 49t54.5 49t72.5 48t78.5 27zM38 -205q50 17 99 161h-1q1 4 5.5 17.5t6.5 20.5v1q-108 -92 -138 -151q-11 -19 -2.5 -37.5t30.5 -11.5z" />
    <glyph glyph-name="u.alt2" unicode="&#xf042;" horiz-adv-x="909" 
d="M667 396q36 12 75.5 8t69.5 -22.5t42 -52t-7 -81.5q-2 18 -29.5 30.5t-73.5 12.5t-98.5 -12t-111 -48t-103.5 -91q-38 -55 -63.5 -85t-45.5 -43.5t-38 -14.5t-41 2q-33 5 -42.5 32.5t0.5 75.5q-26 -41 -51 -67t-43.5 -33.5t-36.5 -10t-31 3.5q-47 11 -56 67t13 145
t74 229q4 11 13.5 17.5t20.5 6.5h80q-139 -369 -79 -390q30 -10 67.5 44t82.5 162q10 28 31 85t28 74q4 11 13 17.5t20 6.5h47v1h65l-4 -2t-9.5 -6t-14.5 -12.5t-16 -22t-16 -32.5v-1q-88 -231 -99 -285q-11 -50 6 -59q3 -1 6 -1t8 4t9 8t11 12t12 15t13 18t14.5 20t15.5 21
t17 22h-1q1 1 1 1.5t1 0.5q5 7 20.5 29t26.5 36q101 131 207 165z" />
    </font>
</defs>
</svg>
